img image001 image001 image001 image001 image001 image001 image001 image001 image001 image001 image001 image001 image001 image001 image001

Planets Sun Sun Sun
Статистика раздачи
Автор: Nickolas3434 | Размер: 10.59 ГБ | Добавлен: 21 авг 2014
Раздают: 23    Качают: 14
Скачать торрент
Скачать торрент
Описание торрента

СообщениеДобавлено: 21 авг 2014 

Информация о фильме
Название: Больница Никербокер
Оригинальное название: The Knick
Год выхода: 2014
Жанр: Драма, медицина
Режиссер: Стивен Содерберг
В ролях: Клайв Оуэн, Эрик Джонсон, Майкл Ангарано, Андре Холлэнд, Джульетта Райлэнс, Крис Салливан, Ив Хьюсон, Кэра Сеймур, Джереми Бобб, Грейнджер Хайнс, Сюзанна Савой
О фильме: Начало XX века. Доктор Джон У. Такер - хирург в нью-йоркской больнице «Никербокер». Здесь применяют передовые методы и стараются помочь всем пациентам. Но до изобретения лазерного скальпеля и компьютерной томографии еще очень далеко, а в карету скорой помощи запрягают лошадей. Врачи, медицинские сестры и другой персонал больницы делают все возможное, стараясь спасти людей.

Выпущено: США
Студия: Anonymous Content, Cinemax
Продолжительность: 2 х ~ 00:55:00
Перевод: Профессиональный многоголосый
Файл
Кодек: MPEG-2
Качество: HDTV 1080i
Видео: 12.8 Мбит/с, 1920x1080
Звук:
Аудио #1: Русский (AC3, 6 ch, 384 Кбит/с) / Профессиональный многоголосый (Amedia)
Аудио #2: Русский (AC3, 6 ch, 384 Кбит/с) / Профессиональный многоголосый (AlexFilm)
Аудио #3: Русский (AC3, 6 ch, 384 Кбит/с) / Профессиональный многоголосый (NewStudio)
Аудио #4: Русский (AC3, 6 ch, 384 Кбит/с) / Профессиональный многоголосый (BaibaKo)
Аудио #5: Английский (AC3, 6 ch, 384 Кбит/с)
Субтитры: Русские, английские
Общее
Уникальный идентификатор : 221071044544037737857896846790280210480 (0xA650BC05131ACD7D9D48B816FDFDE830)
Полное имя : D:В планахСериалы MediaClubBol'nica.Nikerboker.(1.sezon).2014.MPEG2.HDTV.1080i_MediaClubBol'nica.Nikerboker.(1.sezon.01.seria.iz.10).2014.MPEG2.HDTV.1080i_MediaClub.mkv
Формат : Matroska
Версия формата : Version 4 / Version 2
Размер файла : 5,70 Гбайт
Продолжительность : 55 м.
Режим общего битрейта : Переменный
Общий поток : 14,6 Мбит/сек
Название фильма : ReJIiZ MediaClub by BenderBEST
Дата кодирования : UTC 2014-08-18 06:53:32
Программа кодирования : mkvmerge v6.9.1 ('Blue Panther') 64bit built on Apr 18 2014 18:23:38
Библиотека кодирования : libebml v1.3.0 + libmatroska v1.4.1
Видео
Идентификатор : 1
Формат : MPEG Video
Версия формата : Version 2
Профиль формата : Main@High
Параметр BVOP формата : Нет
Параметр матрицы формата : По умолчанию
Идентификатор кодека : V_MPEG2
Идентификатор кодека/Информация : MPEG 1 or 2 Video
Вид битрейта : Переменный
Битрейт : 12,4 Мбит/сек
Максимальный битрейт : 38,8 Мбит/сек
Ширина : 1920 пикселей
Высота : 1080 пикселей
Соотношение сторон : 16:9
Режим частоты кадров : Переменный
Частота кадров в оригинале : 29,970 кадров/сек
Цветовое пространство : YUV
Субдискретизация насыщенности : 4:2:0
Битовая глубина : 8 бит
Тип развёртки : Чересстрочная
Порядок развёртки : Нижнее поле первое
Метод сжатия : С потерями
Временной код первого кадра : 00:00:00;00
Оригинал временного кода : Group of pictures header
Язык : English
Default : Да
Forced : Нет
Аудио #1
Идентификатор : 2
Формат : AC-3
Формат/Информация : Audio Coding 3
Расширение режима : CM (complete main)
Параметр Endianness формата : Big
Идентификатор кодека : A_AC3
Продолжительность : 55 м.
Вид битрейта : Постоянный
Битрейт : 384 Кбит/сек
Каналы : 6 каналов
Расположение каналов : Front: L C R, Side: L R, LFE
Частота : 48,0 КГц
Битовая глубина : 16 бит
Метод сжатия : С потерями
Размер потока : 154 Мбайт (3%)
Заголовок : Novamedia
Язык : Russian
Default : Да
Forced : Нет
Аудио #2
Идентификатор : 3
Формат : AC-3
Формат/Информация : Audio Coding 3
Расширение режима : CM (complete main)
Параметр Endianness формата : Big
Идентификатор кодека : A_AC3
Продолжительность : 55 м.
Вид битрейта : Постоянный
Битрейт : 384 Кбит/сек
Каналы : 6 каналов
Расположение каналов : Front: L C R, Side: L R, LFE
Частота : 48,0 КГц
Битовая глубина : 16 бит
Метод сжатия : С потерями
Размер потока : 154 Мбайт (3%)
Заголовок : AlexFilm
Язык : Russian
Default : Нет
Forced : Нет
Аудио #3
Идентификатор : 4
Формат : AC-3
Формат/Информация : Audio Coding 3
Расширение режима : CM (complete main)
Параметр Endianness формата : Big
Идентификатор кодека : A_AC3
Продолжительность : 55 м.
Вид битрейта : Постоянный
Битрейт : 384 Кбит/сек
Каналы : 6 каналов
Расположение каналов : Front: L C R, Side: L R, LFE
Частота : 48,0 КГц
Битовая глубина : 16 бит
Метод сжатия : С потерями
Размер потока : 154 Мбайт (3%)
Заголовок : NewStudio
Язык : Russian
Default : Нет
Forced : Нет
Аудио #4
Идентификатор : 5
Формат : AC-3
Формат/Информация : Audio Coding 3
Расширение режима : CM (complete main)
Параметр Endianness формата : Big
Идентификатор кодека : A_AC3
Продолжительность : 55 м.
Вид битрейта : Постоянный
Битрейт : 384 Кбит/сек
Каналы : 6 каналов
Расположение каналов : Front: L C R, Side: L R, LFE
Частота : 48,0 КГц
Битовая глубина : 16 бит
Метод сжатия : С потерями
Размер потока : 154 Мбайт (3%)
Заголовок : BaibaKo
Язык : Russian
Default : Нет
Forced : Нет
Аудио #5
Идентификатор : 6
Формат : AC-3
Формат/Информация : Audio Coding 3
Расширение режима : CM (complete main)
Параметр Endianness формата : Big
Идентификатор кодека : A_AC3
Продолжительность : 55 м.
Вид битрейта : Постоянный
Битрейт : 384 Кбит/сек
Каналы : 6 каналов
Расположение каналов : Front: L C R, Side: L R, LFE
Частота : 48,0 КГц
Битовая глубина : 16 бит
Метод сжатия : С потерями
Размер потока : 154 Мбайт (3%)
Язык : English
Default : Нет
Forced : Нет
Текст #1
Идентификатор : 7
Формат : UTF-8
Идентификатор кодека : S_TEXT/UTF8
Идентификатор кодека/Информация : UTF-8 Plain Text
Язык : Russian
Default : Нет
Forced : Нет
Текст #2
Идентификатор : 8
Формат : UTF-8
Идентификатор кодека : S_TEXT/UTF8
Идентификатор кодека/Информация : UTF-8 Plain Text
Язык : English
Default : Нет
Forced : Нет




Релиз от:



   Похожие торренты   Торрент   Размер 
В этой теме нет новых непрочитанных сообщений. Больница Никербокер / The Knick [01x01-02 из 10] (2014) HDTV 1080i | Amedia

69 | 50

5.36 ГБ

В этой теме нет новых непрочитанных сообщений. Больница Никербокер / The Knick [01x01-06 из 10] (2014) HDTV 1080i | Amedia

77 | 149

16.29 ГБ

В этой теме нет новых непрочитанных сообщений. Больница Никербокер / The Knick [01x01-05 из 10] (2014) HDTV 1080i | Amedia

46 | 120

13.53 ГБ

В этой теме нет новых непрочитанных сообщений. Больница Никербокер / The Knick [01x01-07 из 10] (2014) HDTV 1080i | Amedia

39 | 167

18.49 ГБ

В этой теме нет новых непрочитанных сообщений. Больница Никербокер / The Knick [01x01-08 из 10] (2014) HDTV 1080i | NewStudio

20 | 24

40.5 ГБ

В этой теме нет новых непрочитанных сообщений. Больница Никербокер / The Knick [S01] (2014) HDTV 1080i от MediaClub | P

32 | 29

53.38 ГБ

В этой теме нет новых непрочитанных сообщений. Больница Никербокер / The Knick [01x01 из 10] (2014) HDTVRip | Amedia

368 | 27

658.34 МБ




Вы не можете начинать темы
Вы не можете отвечать на сообщения
Вы не можете редактировать свои сообщения
Вы не можете удалять свои сообщения
Вы не можете добавлять вложения

Перейти:  
Для Мосгорсуда, Роскомнадзора и рекламодателей: mosgorsud-torrent[собачка]yandex.ru
 Вход
ppkBB3cker v.2 © 2008-2014 @ PPK
[ Time : 0.062s | 16 Queries | GZIP : Off ]

Торрент трекер RUTOR.IN, Не можете зайти на rutor.org? Какой новый адрес рутор? Какое зеркало рутор? Не работает rutor.org и зеркала? Тогда наш торрент специально для вас. Rutor.in неофициальное зеркало rutor. В случае если у Вас заблокирован rutor или вдруг Вы не можете на него зайти, то Вы без труда сможете скачать бесплатно и без рекламы последние новинки кино, игр, сериалов и прочего у нас, на Rutor.in. Не нужно использовать прокси, чтобы зайти на рутор, достаточно воспользоваться нашим ресурсом. Все новые фильмы, игры, сериалы, книги и музыка за 2013 и 2014 годы через торрент бесплатно. Скачивайте фильмы в хорошем качестве, игры для пк, xbox, playstation без регистрации. У нас вы найдете новые Зарубежные сериалы и Русские сериалы 2013, 2014, 2015 годов. Оставайтесь с нами, качайте любимые фильмы, игры, сериалы, книги и музыку.
cron