img image001 image001 image001 image001 image001 image001 image001 image001 image001 image001 image001 image001 image001 image001 image001

Planets Sun Sun Sun
Статистика раздачи
Автор: Nickolas3434 | Размер: 11.02 ГБ | Добавлен: 21 авг 2014
Раздают: 187    Качают: 72
Скачать торрент
Скачать торрент
Описание торрента

СообщениеДобавлено: 21 авг 2014 


Страна: Россия / ДТ Продакшн
Жанр: криминал
Год выпуска: 2013
Продолжительность: 00:49:00 / серия
Перевод: Не требуется
Cубтитры: нет
Оригинальная аудиодорожка: русский
Режиссер: Армен Арутюнян
В ролях: Семён Шкаликов, Дарья Мороз, Сергей Угрюмов, Андрей Соколов, Виктория Толстоганова, Сергей Газаров, Михаил Трухин, Тимофей Трибунцев, Евгений Миллер, Михаил Ефремов...
Описание: Расследованием преступлений, совершаемых сотрудниками правоохранительных органов, занимается специальная служба — главное управление собственной безопасности. Их работа точно такая же, как и у остальных «обычных» полицейских: сбор данных, оперативная разработка, слежка, прослушка, опросы свидетелей, возбуждение уголовных дел… с одной лишь разницей — сотрудники собственной безопасности работают против своих коллег. Их никто не любит, их только боятся. Они — гласно внедренный в правоохранительную систему страны чужеродный элемент.
Несколько офицеров собственной безопасности работают в атмосфере постоянного недоверия и подозрительности, где каждый шаг нужно просчитывать и продумывать со всех сторон, действовать максимально деликатно и в то же время эффективно. Их успехи только увеличивают пропасть между ними и обычными людьми в форме. В такой ситуации тотального отчуждения коллеги сплачиваются еще сильнее, становятся настоящей командой, без слабых мест…


Качество: DVDRip / 4 x DVD9 R5 - лицензионные диски от ООО "Активижен"
Формат: AVI
Видео: 720x384 (1.85:1), 25.000 fps, XviD ~ 1800 kbps avg, 0.250 bit/pixel
Аудио: 48 kHz, Dolby AC3, 2 ch, 192 kbps, русский
Раздача от:
Общее
Полное имя : Departament.2013.S1.O.DVDRip_[New-Team]__by_avproh2.avi
Формат : AVI
Формат/Информация : Audio Video Interleave
Размер файла : 705 Мбайт
Продолжительность : 49 м.
Общий поток : 2001 Кбит/сек
Программа кодирования : VirtualDubModRus 1.5.10.2 (build 2542/release)
Библиотека кодирования : VirtualDubMod build 2542/release
Видео
Идентификатор : 0
Формат : MPEG-4 Visual
Профиль формата : Advanced Simple@L5
Параметр BVOP формата : 1
Параметр QPel формата : Нет
Параметр GMC формата : Без точки перехода
Параметр матрицы формата : Выборочная
Идентификатор кодека : XVID
Идентификатор кодека/Подсказка : XviD
Продолжительность : 49 м.
Битрейт : 1800 Кбит/сек
Ширина : 720 пикселей
Высота : 384 пикселя
Соотношение сторон : 1,85:1
Частота кадров : 25,000 кадров/сек
Цветовое пространство : YUV
Субдискретизация насыщенности : 4:2:0
Битовая глубина : 8 бит
Тип развёртки : Прогрессивная
Метод сжатия : С потерями
Бит/(Пиксели*Кадры) : 0.260
Размер потока : 634 Мбайт (90%)
Библиотека кодирования : XviD 73
Аудио
Идентификатор : 1
Формат : AC-3
Формат/Информация : Audio Coding 3
Расширение режима : CM (complete main)
Параметр Endianness формата : Big
Идентификатор кодека : 2000
Продолжительность : 49 м.
Вид битрейта : Постоянный
Битрейт : 192 Кбит/сек
Каналы : 2 канала
Расположение каналов : Front: L R
Частота : 48,0 КГц
Битовая глубина : 16 бит
Метод сжатия : С потерями
Размер потока : 67,7 Мбайт (10%)
Выравнивание : Разделение по промежуткам
Продолжительность промежутка : 40 мс. (1,00 видеокадр)
Время предзагрузки промежутка : 500 мс.






   Похожие торренты   Торрент   Размер 
В этой теме нет новых непрочитанных сообщений. Департамент [01-16 ИЗ 16] (2013) DVDRip-AVC от New-Team | лицензия

120 | 46

10.97 ГБ

В этой теме нет новых непрочитанных сообщений. Департамент [01-16 из 16] (2013) 4 x DVD9 от New-Team | Лицензия

14 | 21

31.09 ГБ

В этой теме нет новых непрочитанных сообщений. Департамент [01-16 из 16] (2013) SATRip

1464 | 368

9.38 ГБ

В этой теме нет новых непрочитанных сообщений. Департамент [01-16 из 16] (2013) WEB-DL 1080p от HitWay

1 | 16

23.03 ГБ

В этой теме нет новых непрочитанных сообщений. Департамент [01-16 из 16] (2013) WEB-DLRip-AVC от ExKinoRay

374 | 178

11.73 ГБ

В этой теме нет новых непрочитанных сообщений. Департамент [01-16 из 16] (2013) WEB-DL 720p от HitWay

54 | 6

10.86 ГБ

В этой теме нет новых непрочитанных сообщений. Департамент [01-16 из 16] (2013) WEB-DLRip от РиперАМ

12 | 4

9.39 ГБ




Вы не можете начинать темы
Вы не можете отвечать на сообщения
Вы не можете редактировать свои сообщения
Вы не можете удалять свои сообщения
Вы не можете добавлять вложения

Перейти:  
Для Мосгорсуда, Роскомнадзора и рекламодателей: mosgorsud-torrent[собачка]yandex.ru
 Вход
ppkBB3cker v.2 © 2008-2014 @ PPK
[ Time : 0.028s | 17 Queries | GZIP : On ]

Торрент трекер RUTOR.IN, Не можете зайти на rutor.org? Какой новый адрес рутор? Какое зеркало рутор? Не работает rutor.org и зеркала? Тогда наш торрент специально для вас. Rutor.in неофициальное зеркало rutor. В случае если у Вас заблокирован rutor или вдруг Вы не можете на него зайти, то Вы без труда сможете скачать бесплатно и без рекламы последние новинки кино, игр, сериалов и прочего у нас, на Rutor.in. Не нужно использовать прокси, чтобы зайти на рутор, достаточно воспользоваться нашим ресурсом. Все новые фильмы, игры, сериалы, книги и музыка за 2013 и 2014 годы через торрент бесплатно. Скачивайте фильмы в хорошем качестве, игры для пк, xbox, playstation без регистрации. У нас вы найдете новые Зарубежные сериалы и Русские сериалы 2013, 2014, 2015 годов. Оставайтесь с нами, качайте любимые фильмы, игры, сериалы, книги и музыку.