img image001 image001 image001 image001 image001 image001 image001 image001 image001 image001 image001 image001 image001 image001 image001

Planets Sun Sun Sun
Статистика раздачи
Автор: Nickolas3434 | Размер: 10.97 ГБ | Добавлен: 23 авг 2014
Раздают: 120    Качают: 46
Скачать торрент
Скачать торрент
Описание торрента

СообщениеДобавлено: 23 авг 2014 


Страна: Россия / ДТ Продакшн
Жанр: криминал
Год выпуска: 2013
Продолжительность: 00:49:00 / серия
Перевод: Не требуется
Cубтитры: нет
Оригинальная аудиодорожка: русский
Режиссер: Армен Арутюнян
В ролях: Семён Шкаликов, Дарья Мороз, Сергей Угрюмов, Андрей Соколов, Виктория Толстоганова, Сергей Газаров, Михаил Трухин, Тимофей Трибунцев, Евгений Миллер, Михаил Ефремов...
Описание: Расследованием преступлений, совершаемых сотрудниками правоохранительных органов, занимается специальная служба — главное управление собственной безопасности. Их работа точно такая же, как и у остальных «обычных» полицейских: сбор данных, оперативная разработка, слежка, прослушка, опросы свидетелей, возбуждение уголовных дел… с одной лишь разницей — сотрудники собственной безопасности работают против своих коллег. Их никто не любит, их только боятся. Они — гласно внедренный в правоохранительную систему страны чужеродный элемент.
Несколько офицеров собственной безопасности работают в атмосфере постоянного недоверия и подозрительности, где каждый шаг нужно просчитывать и продумывать со всех сторон, действовать максимально деликатно и в то же время эффективно. Их успехи только увеличивают пропасть между ними и обычными людьми в форме. В такой ситуации тотального отчуждения коллеги сплачиваются еще сильнее, становятся настоящей командой, без слабых мест…


Качество: DVDRip-AVC / 4 x DVD9 R5 - лицензионные диски от ООО "Активижен"
Формат: MKV
Видео: 720x538@1024x538 (1.9:1), 25.000 fps, MPEG-4 AVC ~ 1809 kbps avg, 0.187 bit/pixel
Аудио: 48 kHz, Dolby AC3, 2 ch, 192 kbps, русский
Раздача от:
Общее
Полное имя : Departament.2013.S1.O.DVDRip-AVC_[New-Team]__by_avproh\01.mkv
Формат : Matroska
Версия формата : Version 4 / Version 2
Размер файла : 697 Мбайт
Продолжительность : 48 м.
Общий поток : 2001 Кбит/сек
Дата кодирования : UTC 2014-08-20 14:49:43
Программа кодирования : mkvmerge v7.1.0 ('Good Love') 64bit built on Jul 27 2014 13:06:55
Библиотека кодирования : libebml v1.3.0 + libmatroska v1.4.1
DURATION : 00:48:43.072000000
NUMBER_OF_FRAMES : 91346
NUMBER_OF_BYTES : 70153728
_STATISTICS_WRITING_APP : mkvmerge v7.1.0 ('Good Love') 64bit built on Jul 27 2014 13:06:55
_STATISTICS_WRITING_DATE_UTC : 2014-08-20 14:49:43
_STATISTICS_TAGS : BPS DURATION NUMBER_OF_FRAMES NUMBER_OF_BYTES
Видео
Идентификатор : 1
Формат : AVC
Формат/Информация : Advanced Video Codec
Профиль формата : High@L4.1
Параметр CABAC формата : Да
Параметр ReFrames формата : 8 кадров
Идентификатор кодека : V_MPEG4/ISO/AVC
Продолжительность : 48 м.
Битрейт : 1809 Кбит/сек
Ширина : 720 пикселей
Высота : 538 пикселей
Соотношение сторон : 1,903
Режим частоты кадров : Постоянный
Частота кадров : 25,000 кадров/сек
Цветовое пространство : YUV
Субдискретизация насыщенности : 4:2:0
Битовая глубина : 8 бит
Тип развёртки : Прогрессивная
Бит/(Пиксели*Кадры) : 0.187
Размер потока : 617 Мбайт (88%)
Библиотека кодирования : x264 core 130 r2273 b3065e6
Настройки программы : cabac=1 / ref=8 / deblock=1:-2:-1 / analyse=0x3:0x113 / me=umh / subme=10 / psy=1 / psy_rd=1.00:0.05 / mixed_ref=1 / me_range=32 / chroma_me=1 / trellis=2 / 8x8dct=1 / cqm=0 / deadzone=21,11 / fast_pskip=0 / chroma_qp_offset=-3 / threads=9 / lookahead_threads=1 / sliced_threads=0 / nr=0 / decimate=0 / interlaced=0 / bluray_compat=0 / constrained_intra=0 / bframes=8 / b_pyramid=2 / b_adapt=2 / b_bias=0 / direct=3 / weightb=1 / open_gop=0 / weightp=2 / keyint=250 / keyint_min=25 / scenecut=40 / intra_refresh=0 / rc=2pass / mbtree=0 / bitrate=1809 / ratetol=1.0 / qcomp=0.60 / qpmin=0 / qpmax=69 / qpstep=4 / cplxblur=20.0 / qblur=0.5 / ip_ratio=1.40 / pb_ratio=1.30 / aq=1:1.00
Язык : Russian
Default : Да
Forced : Нет
DURATION : 00:48:43.080000000
NUMBER_OF_FRAMES : 73077
NUMBER_OF_BYTES : 660444799
_STATISTICS_WRITING_APP : mkvmerge v7.1.0 ('Good Love') 64bit built on Jul 27 2014 13:06:55
_STATISTICS_WRITING_DATE_UTC : 2014-08-20 14:49:43
_STATISTICS_TAGS : BPS DURATION NUMBER_OF_FRAMES NUMBER_OF_BYTES
Аудио
Идентификатор : 2
Формат : AC-3
Формат/Информация : Audio Coding 3
Расширение режима : CM (complete main)
Параметр Endianness формата : Big
Идентификатор кодека : A_AC3
Продолжительность : 48 м.
Вид битрейта : Постоянный
Битрейт : 192 Кбит/сек
Каналы : 2 канала
Расположение каналов : Front: L R
Частота : 48,0 КГц
Битовая глубина : 16 бит
Метод сжатия : С потерями
Размер потока : 66,9 Мбайт (10%)
Язык : Russian
Default : Да
Forced : Нет



WEB-DLRip (MKV):
Видео: http://screenshotcomparison.com/comparison/88557
Аудио: http://screenshotcomparison.com/comparison/88558
WebDLRip (AVC):
Видео:http://screenshotcomparison.com/comparison/88560
Аудио: http://screenshotcomparison.com/comparison/88559



   Похожие торренты   Торрент   Размер 
В этой теме нет новых непрочитанных сообщений. Департамент [01-16 ИЗ 16] (2013) DVDRip от New-Team | лицензия

187 | 72

11.02 ГБ

В этой теме нет новых непрочитанных сообщений. Департамент [01-16 из 16] (2013) 4 x DVD9 от New-Team | Лицензия

14 | 21

31.09 ГБ

В этой теме нет новых непрочитанных сообщений. Департамент [01-16 из 16] (2013) SATRip

1464 | 368

9.38 ГБ

В этой теме нет новых непрочитанных сообщений. Департамент [01-16 из 16] (2013) WEB-DL 720p от HitWay

54 | 6

10.86 ГБ

В этой теме нет новых непрочитанных сообщений. Департамент [01-16 из 16] (2013) WEB-DLRip от РиперАМ

12 | 4

9.39 ГБ

В этой теме нет новых непрочитанных сообщений. Департамент [01-16 из 16] (2013) WEB-DLRip-AVC от ExKinoRay

374 | 178

11.73 ГБ

В этой теме нет новых непрочитанных сообщений. Департамент [01-16 из 16] (2013) WEB-DL 1080p от HitWay

1 | 16

23.03 ГБ




Вы не можете начинать темы
Вы не можете отвечать на сообщения
Вы не можете редактировать свои сообщения
Вы не можете удалять свои сообщения
Вы не можете добавлять вложения

Перейти:  
Для Мосгорсуда, Роскомнадзора и рекламодателей: mosgorsud-torrent[собачка]yandex.ru
 Вход
ppkBB3cker v.2 © 2008-2014 @ PPK
[ Time : 0.042s | 16 Queries | GZIP : Off ]

Торрент трекер RUTOR.IN, Не можете зайти на rutor.org? Какой новый адрес рутор? Какое зеркало рутор? Не работает rutor.org и зеркала? Тогда наш торрент специально для вас. Rutor.in неофициальное зеркало rutor. В случае если у Вас заблокирован rutor или вдруг Вы не можете на него зайти, то Вы без труда сможете скачать бесплатно и без рекламы последние новинки кино, игр, сериалов и прочего у нас, на Rutor.in. Не нужно использовать прокси, чтобы зайти на рутор, достаточно воспользоваться нашим ресурсом. Все новые фильмы, игры, сериалы, книги и музыка за 2013 и 2014 годы через торрент бесплатно. Скачивайте фильмы в хорошем качестве, игры для пк, xbox, playstation без регистрации. У нас вы найдете новые Зарубежные сериалы и Русские сериалы 2013, 2014, 2015 годов. Оставайтесь с нами, качайте любимые фильмы, игры, сериалы, книги и музыку.