img image001 image001 image001 image001 image001 image001 image001 image001 image001 image001 image001 image001 image001 image001 image001

Planets Sun Sun Sun
Статистика раздачи
Автор: Nickolas3434 | Размер: 59.55 ГБ | Добавлен: 23 авг 2014
Раздают: 429    Качают: 709
Скачать торрент
Скачать торрент
Описание торрента

СообщениеДобавлено: 23 авг 2014 

Информация о фильме
Название: Побег из тюрьмы
Оригинальное название: Prison Break
Год выхода: 2005-2009
Жанр: Боевик, триллер, драма
Режиссер: Бобби Рот, Джейс Александр, Мэтт Эрл Бисли
В ролях: Вентворт Миллер, Доминик Пёрселл, Сара Уэйн Кэллис, Амори Ноласко, Роберт Неппер, Рокмонд Данбар, Уэйд Уильямс, Маршалл Эллман, Пол Адельштейн, Петер Стормаре, Робин Танни, Уильям Фихтнер, Роберт Уиздом, Крис Вэнс, Джоди Лин О`Кифи, Дэйнэй Гарсиа, Майкл Рапапорт, Стейси Кич, Фрэнк Грилло, Джессалин Гилсиг, Лэйн Гаррисон, Сайлас Уэйр Митчелл, Холли Вэлэнс, Патриция Уэттиг, Регги Ли, Леон Рассом, Кэтлин Куинлен, Мьюз Уотсон
О фильме:
На что готов пойти человек, брата которого приговорили к смертной казни за преступление, которого он не совершал? Разобраться во всем этом и оправдать брата обычным, «правильным» путем не получится, когда за этим делом стоят власти. Майкл Скофилд находит универсальный метод. Сымитировав ограбление банка, отказавшись от адвоката, он все-таки попадает в «Фокс Ривер», где сидит его брат. Майкл спланировал побег с братом до мелочей, включая запасные варианты. Но даже на пути у самых безупречных планов становятся непредсказуемые препятствия. В тюрьме у Майкла и у группы людей, которую он сформировал для помощи в побеге, возникает много проблем. Слишком много непредвиденных обстоятельств приближают смерть брата... Сериал Prison Break впитал в себя все чувства. Чувство страха, боли, ненависти, любви, преданности. В таких условиях проявляется многое в людях, и становится ясно, кто есть кто. Постоянное напряжение и интрига захватывает зрителя с первых минут. Неизвестность того, что произойдет дальше, переживания в ответственных моментах держит, не отпуская ни на миг

Страна: США
Студия: 20th Century Fox Television, Adelstein-Parouse Productions, Original Television, Prison Break Productions, Rat Entertainment
Продолжительность: 77 x ~ 00:44:00, 2 x ~ 01:28:00
Перевод: дублированный (РЕН ТВ)
Файл
Кодек: H.264
Качество: BDRip 720p
Видео: 1280х720, ~ 2100 Kбит/с, 23.976 Кадр/с
Звук: Русский (AC3, 6 ch, 384 Кбит/с), (AC3, 6 ch, 448 Кбит/с) | РЕН ТВ

1 сезон
01. Пилотный эпизод / Pilot
02. Аллен / Allen
03. Проверка камеры / Cell Test
04. Хитрый яд / Cute Poison
05. По какой из трех улиц? / English, Fitz or Percy
06. Бунт, сверло и дьявол: Часть 1 / Riots, Drills and the Devil: Part 1
07. Бунт, сверло и дьявол: Часть 2 / Riots, Drills and the Devil: Part 2
08. Старшой / The Old Head
09. Твинер / Tweener
10. Ловкость рук / Sleight of Hand
11. И вот их стало семеро / And Then There Were 7
12. Один лишний / Odd Man Out
13. Конец туннеля / End of the Tunnel
14. Крыса / The Rat
15. По коже и по зубам / By the Skin and the Teeth
16. Сторож брату своему / Brother's Keeper
17. Джей-Кэт / J-Cat
18. Блеф / Bluff
19. Ключ / The Key
20. Сегодня ночью / Tonight
21. Пошел! / Go
22. Полет / Flight
2 сезон
01. Охота за людьми / Manhunt
02. Система слежения / Otis
03. Пристальное наблюдение / Scan
04. Первый провал / First Down
05. Карта 1213 / Map 1213
06. Межевание / Subdivision
07. Закопанный / Buried
08. Давящая ловушка / Dead Fall
09. Откопанный / Unearthed
10. Встречи / Rendezvous
11. Большая Попойка / Bolshoi Booze
12. Нарушенная Связь / Disconnect
13. Смертоносная камера / The Killing Box
14. Джон Доу / John Doe
15. Послание / The Message
16. Чикаго / Chicago
17. Дурная кровь / Bad Blood
18. След в потоке / Wash
19. Дорогая Керолайн / Sweet Caroline
20. Панама / Panama
21. Конец пути / Fin del camino
22. Сона / Sona
3 сезон
01. Знакомство / Orientacion
02. Огонь и вода / Fire/Water
03. В ожидании звонка / Call Waiting
04. Лазейка / Good Fences
05. Помехи / Interference
06. Фотофиниш / Photo Finish
07. Уходим! / Vamonos
08. Вжик! - и свободен / Bang & Burn
09. В клетке / Boxed In
10. Заживо погребённый / Dirt Nap
11. Выход - внизу / Under & Out
12. Через тернии / Hell or High Water
13. Мастерски справился / The Art of the Deal
4 сезон
01-02. Сцилла / Scylla, Взлом / Breaking and Entering
03. Сбой / Shut Down
04. Орлы и ангелы / Eagles and Angels
05. Сейф / Safe and sound
06. Провал / Blow Out
07. Осталась пятая / Five the Hard Way
08. Цена / The Price
09. Во все тяжкие / Greatness achieved
10. Легенда / The Legend
11. Тихий бунт / Quiet Riot
12. Кидалово / Selfless
13. Торговцы / Deal or No Deal
14. Сделка / Just Business
15. Операция / Going Under
16. Солнечный штат / The Sunshine State
17. Весь в маму / The Mother Lode
18. Противостояние / VS.
19. Сукины дети / S.O.B.
20. Казаки-разбойники / Cowboys and Indians
21. Цена вопроса / Rates of Exchange
22. Кто-то должен уйти / Killing Your Number
Финальный побег / The Final Break
General
Unique ID : 201790407872095421082810181259521536538 (0x97CF6B3D1A35302E90CB92FF9B9DB21A)
Complete name : G:KinozalPrison Break (Побег из тюрьмы) 2005-2009 РЕН ТВSeason 1Prison Break S01E01.mkv
Format : Matroska
Format version : Version 2
File size : 694 MiB
Duration : 43mn 41s
Overall bit rate : 2 220 Kbps
Movie name : Prison Break S01E01
Encoded date : UTC 2013-12-07 14:43:50
Writing application : mkvmerge v6.6.0 ('The Edge Of The In Between') built on Dec 1 2013 17:55:00
Writing library : libebml v1.3.0 + libmatroska v1.4.1
Video
ID : 1
Format : AVC
Format/Info : Advanced Video Codec
Format profile : High@L4.1
Format settings, CABAC : Yes
Format settings, ReFrames : 11 frames
Codec ID : V_MPEG4/ISO/AVC
Duration : 43mn 41s
Bit rate : 1 835 Kbps
Width : 1 280 pixels
Height : 720 pixels
Display aspect ratio : 16:9
Frame rate mode : Constant
Frame rate : 23.976 fps
Color space : YUV
Chroma subsampling : 4:2:0
Bit depth : 8 bits
Scan type : Progressive
Bits/(Pixel*Frame) : 0.083
Stream size : 560 MiB (81%)
Writing library : x264 core 67 r1148M 400740b
Encoding settings : cabac=1 / ref=11 / deblock=1:-3:-3 / analyse=0x3:0x113 / me=umh / subme=9 / psy_rd=1.0:0.0 / mixed_ref=1 / me_range=16 / chroma_me=1 / trellis=2 / 8x8dct=1 / cqm=2 / deadzone=21,11 / chroma_qp_offset=-2 / threads=3 / nr=0 / decimate=1 / mbaff=0 / bframes=3 / b_pyramid=0 / b_adapt=2 / b_bias=0 / direct=3 / wpredb=1 / keyint=250 / keyint_min=25 / scenecut=40 / rc=2pass / bitrate=1835 / ratetol=1.0 / qcomp=0.60 / qpmin=10 / qpmax=51 / qpstep=4 / cplxblur=20.0 / qblur=0.5 / vbv_maxrate=50000 / vbv_bufsize=50000 / ip_ratio=1.40 / pb_ratio=1.30 / aq=1:1.00
Default : Yes
Forced : No
Audio
ID : 2
Format : AC-3
Format/Info : Audio Coding 3
Mode extension : CM (complete main)
Format settings, Endianness : Big
Codec ID : A_AC3
Duration : 43mn 41s
Bit rate mode : Constant
Bit rate : 384 Kbps
Channel count : 6 channels
Channel positions : Front: L C R, Side: L R, LFE
Sampling rate : 48.0 KHz
Bit depth : 16 bits
Compression mode : Lossy
Stream size : 120 MiB (17%)
Language : Russian
Default : Yes
Forced : No
General
Unique ID : 227534858744714731562399251558103557667 (0xAB2D9EAA3813C1DE9BC24C813730A623)
Complete name : G:KinozalPrison Break (Побег из тюрьмы) 2005-2009 РЕН ТВSeason 2Prison Break S02E01.mkv
Format : Matroska
Format version : Version 2
File size : 800 MiB
Duration : 41mn 27s
Overall bit rate : 2 697 Kbps
Movie name : Prison Break S02E01
Encoded date : UTC 2013-12-07 16:31:03
Writing application : mkvmerge v6.6.0 ('The Edge Of The In Between') built on Dec 1 2013 17:55:00
Writing library : libebml v1.3.0 + libmatroska v1.4.1
Video
ID : 1
Format : AVC
Format/Info : Advanced Video Codec
Format profile : High@L4.1
Format settings, CABAC : Yes
Format settings, ReFrames : 5 frames
Codec ID : V_MPEG4/ISO/AVC
Duration : 41mn 27s
Bit rate : 2 247 Kbps
Width : 1 280 pixels
Height : 720 pixels
Display aspect ratio : 16:9
Frame rate mode : Constant
Frame rate : 23.976 fps
Color space : YUV
Chroma subsampling : 4:2:0
Bit depth : 8 bits
Scan type : Progressive
Bits/(Pixel*Frame) : 0.102
Stream size : 651 MiB (81%)
Writing library : x264 core 75 r1247 b3efbe5
Encoding settings : cabac=1 / ref=5 / deblock=1:-1:-3 / analyse=0x3:0x113 / me=umh / subme=9 / psy=1 / psy_rd=1.0:0.0 / mixed_ref=1 / me_range=16 / chroma_me=1 / trellis=2 / 8x8dct=1 / cqm=2 / deadzone=21,11 / chroma_qp_offset=-2 / threads=6 / nr=0 / decimate=1 / mbaff=0 / bframes=3 / b_pyramid=0 / b_adapt=2 / b_bias=0 / direct=3 / wpredb=1 / keyint=250 / keyint_min=25 / scenecut=40 / rc_lookahead=0 / rc=2pass / mbtree=0 / bitrate=2247 / ratetol=1.0 / qcomp=0.60 / qpmin=10 / qpmax=51 / qpstep=4 / cplxblur=20.0 / qblur=0.5 / vbv_maxrate=50000 / vbv_bufsize=50000 / ip_ratio=1.40 / pb_ratio=1.30 / aq=1:1.00
Language : English
Default : Yes
Forced : No
Audio
ID : 2
Format : AC-3
Format/Info : Audio Coding 3
Mode extension : CM (complete main)
Format settings, Endianness : Big
Codec ID : A_AC3
Duration : 41mn 27s
Bit rate mode : Constant
Bit rate : 448 Kbps
Channel count : 6 channels
Channel positions : Front: L C R, Side: L R, LFE
Sampling rate : 48.0 KHz
Bit depth : 16 bits
Compression mode : Lossy
Stream size : 133 MiB (17%)
Language : Russian
Default : Yes
Forced : No
General
Unique ID : 192829968288931374303218274131297186447 (0x9111B375690B27F19D45D6BA5BBC328F)
Complete name : G:KinozalPrison Break (Побег из тюрьмы) 2005-2009 РЕН ТВSeason 3Prison Break S03E01.mkv
Format : Matroska
Format version : Version 1
File size : 704 MiB
Duration : 43mn 5s
Overall bit rate : 2 285 Kbps
Encoded date : UTC 2010-02-02 21:16:49
Writing application : mkvmerge v2.2.0 ('Turn It On Again') built on Mar 4 2008 12:58:26
Writing library : libebml v0.7.7 + libmatroska v0.8.1
Video
ID : 1
Format : AVC
Format/Info : Advanced Video Codec
Format profile : High@L4.1
Format settings, CABAC : Yes
Format settings, ReFrames : 8 frames
Codec ID : V_MPEG4/ISO/AVC
Duration : 43mn 5s
Bit rate : 1 898 Kbps
Width : 1 280 pixels
Height : 720 pixels
Display aspect ratio : 16:9
Frame rate mode : Constant
Frame rate : 23.976 fps
Color space : YUV
Chroma subsampling : 4:2:0
Bit depth : 8 bits
Scan type : Progressive
Bits/(Pixel*Frame) : 0.086
Stream size : 572 MiB (81%)
Writing library : x264 core 67 r1162M f7bfcfa
Encoding settings : cabac=1 / ref=8 / deblock=1:0:0 / analyse=0x3:0x113 / me=umh / subme=9 / psy_rd=1.0:0.0 / mixed_ref=1 / me_range=16 / chroma_me=1 / trellis=2 / 8x8dct=1 / cqm=2 / deadzone=21,11 / chroma_qp_offset=-2 / threads=3 / nr=0 / decimate=1 / mbaff=0 / bframes=3 / b_pyramid=0 / b_adapt=2 / b_bias=0 / direct=3 / wpredb=1 / keyint=250 / keyint_min=25 / scenecut=40 / rc=2pass / bitrate=1898 / ratetol=1.0 / qcomp=0.60 / qpmin=10 / qpmax=51 / qpstep=4 / cplxblur=20.0 / qblur=0.5 / vbv_maxrate=50000 / vbv_bufsize=50000 / ip_ratio=1.40 / pb_ratio=1.30 / aq=1:1.00
Default : Yes
Forced : No
Audio
ID : 2
Format : AC-3
Format/Info : Audio Coding 3
Mode extension : CM (complete main)
Format settings, Endianness : Big
Codec ID : A_AC3
Duration : 43mn 5s
Bit rate mode : Constant
Bit rate : 384 Kbps
Channel count : 6 channels
Channel positions : Front: L C R, Side: L R, LFE
Sampling rate : 48.0 KHz
Bit depth : 16 bits
Compression mode : Lossy
Stream size : 118 MiB (17%)
Language : Russian
Default : Yes
Forced : No
General
Unique ID : 240724680353103825591798947984473518966 (0xB519E31409C83574BAD50F79090AF376)
Complete name : G:KinozalPrison Break (Побег из тюрьмы) 2005-2009 РЕН ТВSeason 4Prison Break S04E01-02.mkv
Format : Matroska
Format version : Version 2
File size : 1.53 GiB
Duration : 1h 26mn
Overall bit rate : 2 531 Kbps
Movie name : Prison Break S04E01-02
Encoded date : UTC 2013-12-07 18:01:12
Writing application : mkvmerge v6.6.0 ('The Edge Of The In Between') built on Dec 1 2013 17:55:00
Writing library : libebml v1.3.0 + libmatroska v1.4.1
Video
ID : 1
Format : AVC
Format/Info : Advanced Video Codec
Format profile : High@L4.1
Format settings, CABAC : Yes
Format settings, ReFrames : 8 frames
Codec ID : V_MPEG4/ISO/AVC
Duration : 1h 26mn
Bit rate : 2 145 Kbps
Width : 1 280 pixels
Height : 720 pixels
Display aspect ratio : 16:9
Frame rate mode : Constant
Frame rate : 23.976 fps
Color space : YUV
Chroma subsampling : 4:2:0
Bit depth : 8 bits
Scan type : Progressive
Bits/(Pixel*Frame) : 0.097
Stream size : 1.27 GiB (83%)
Writing library : x264 core 75 r1247 b3efbe5
Encoding settings : cabac=1 / ref=8 / deblock=1:0:0 / analyse=0x3:0x113 / me=umh / subme=9 / psy=1 / psy_rd=1.0:0.0 / mixed_ref=1 / me_range=16 / chroma_me=1 / trellis=2 / 8x8dct=1 / cqm=2 / deadzone=21,11 / chroma_qp_offset=-2 / threads=6 / nr=0 / decimate=1 / mbaff=0 / bframes=3 / b_pyramid=0 / b_adapt=2 / b_bias=0 / direct=3 / wpredb=1 / keyint=250 / keyint_min=25 / scenecut=40 / rc_lookahead=0 / rc=2pass / mbtree=0 / bitrate=2145 / ratetol=1.0 / qcomp=0.60 / qpmin=10 / qpmax=51 / qpstep=4 / cplxblur=20.0 / qblur=0.5 / vbv_maxrate=50000 / vbv_bufsize=50000 / ip_ratio=1.40 / pb_ratio=1.30 / aq=1:1.00
Language : English
Default : Yes
Forced : No
Audio
ID : 2
Format : AC-3
Format/Info : Audio Coding 3
Mode extension : CM (complete main)
Format settings, Endianness : Big
Codec ID : A_AC3
Duration : 1h 26mn
Bit rate mode : Constant
Bit rate : 384 Kbps
Channel count : 6 channels
Channel positions : Front: L C R, Side: L R, LFE
Sampling rate : 48.0 KHz
Bit depth : 16 bits
Compression mode : Lossy
Stream size : 237 MiB (15%)
Language : Russian
Default : Yes
Forced : No
Небольшой размер, высокое качество (nanoHD)
1-3 сезон - kostyan77
Аудиодорожку 2 сезона заменил на более качественную от Mufanu
4 сезон - subarro
Аудиодорожку заменил на более качественную от 12kiril / Mufanu
Версия "Финального побега" показанная по ТВ, несколько отличается монтажем от версии, вышедшей на Blu Ray. Вырезано несколько коротких моментов. Соответственно при сведении звука получились непереведенные места. На них прилагаются субтитры. Субтитрами переведено три момента по несколько фраз.
В 11 серии 4 сезона добавлена дорожка РЕН ТВ AC3 2.0 192 Kbps, поскольку в шестиканальной в некотрых местах присутствуют посторонние звуки
Русский (AC3, 6 ch, 384 Кбит/с) - 1,3,4 сезоны, русский (AC3, 6 ch, 448 Кбит/с) - 2 сезон



   Похожие торренты   Торрент   Размер 
В этой теме нет новых непрочитанных сообщений. Побег из тюрьмы / Prison Break [S01-04 + Финальный побег] (2005-2009) BDRip 720p

132 | 677

59.49 ГБ

В этой теме нет новых непрочитанных сообщений. Побег из тюрьмы / Prison Break [S01-04] (2005-2009) BDRip 720p | РЕН ТВ

16 | 65

59.49 ГБ

В этой теме нет новых непрочитанных сообщений. Побег из тюрьмы: Финальный побег / Prison Break: The Final Break (2009) BDRip 720p от NOLIMITS-TEAM

67 | 30

2.26 ГБ

В этой теме нет новых непрочитанных сообщений. Побег из тюрьмы / Prison Break [S01-04] (2005-2009) BDRip | D

559 | 756

35.67 ГБ

В этой теме нет новых непрочитанных сообщений. Побег из тюрьмы / Prison Break [S01-04 + Финальный побег] (2005-2009) BDRemux 1080p | D, P

0 | 23

716.4 ГБ

В этой теме нет новых непрочитанных сообщений. Побег из тюрьмы: Финальный побег / Prison Break: The Final Break (2009) BDRip 1080р | D, P

85 | 13

7.12 ГБ

В этой теме нет новых непрочитанных сообщений. Побег из тюрьмы: Финальный побег / Prison Break: The Final Break (2009) BDRip от HQ-VIDEO

15 | 29

1.7 ГБ




Вы не можете начинать темы
Вы не можете отвечать на сообщения
Вы не можете редактировать свои сообщения
Вы не можете удалять свои сообщения
Вы не можете добавлять вложения

Перейти:  
Для Мосгорсуда, Роскомнадзора и рекламодателей: mosgorsud-torrent[собачка]yandex.ru
 Вход
ppkBB3cker v.2 © 2008-2014 @ PPK
[ Time : 0.055s | 16 Queries | GZIP : Off ]

cron