img image001 image001 image001 image001 image001 image001 image001 image001 image001 image001 image001 image001 image001 image001 image001

Planets Sun Sun Sun
Статистика раздачи
Автор: Nickolas3434 | Размер: 8.74 ГБ | Добавлен: 27 авг 2014
Раздают: 26    Качают: 22
Скачать торрент
Скачать торрент
Описание торрента

СообщениеДобавлено: 27 авг 2014 


Страна: Россия / Профит
Жанр: детектив, драма, криминал
Год выпуска: 2013
Продолжительность: 00:51:00 / серия
Перевод: Не требуется
Cубтитры: нет
Оригинальная аудиодорожка: русский
Режиссер: Владимир Шевельков
В ролях: Нина Усатова, Мария Шукшина, Павел Трубинер, Максим Дрозд, Сергей Никоненко, Евгений Сидихин, Леонид Громов, Денис Шведов, Николай Добрынин, Никита Салопин...
Описание: 2010 год. Кубанская станица Лощинская - оазис процветания среди кризисной разрухи: плотно засеяны поля, знатно ухожены фермы, население трудоустроено и сыто. Что это — колхозный капитализм или когда-то обещанный коммунизм? Ни то и ни другое. Это — блистательный семейный бизнес лихой казачки Надежды Волковой, крестной мамы здешних мест. И, как всякий успешный бизнес, поднятый с нуля в 90-е, он замешан на крови… В один прекрасный день в станицу Лощинская приезжает Марина Горобец, в недавнем прошлом замужняя женщина, директор молочного хозяйства в соседнем районе, а нынче — безработная и разведенная красавица в расцвете лет. Приезжает она, чтобы навестить дочь Светлану, которая учится в местном профучилище; тут-то и выясняется, что девочки в станице нет. Директор училища, местные милиционеры, одноклассницы Светы на прямые вопросы не отвечают, ведут себя агрессивно, словом, явно что-то скрывают. Не добившись помощи от официальных структур, Марина решает искать дочь самостоятельно. Она еще не знает, что на самом деле станицей руководит структура неофициальная — клан бизнесменов Волковых.


Качество: DVDRip-AVC / 2 x DVD9 R5 - лицензионные диски от "ЯРОС ФИЛЬМ"
Формат: MKV
Видео: 720x576@1024x576 (16:9), 25.000 fps, MPEG-4 AVC ~ 1809 kbps avg, 0.174 bit/pixel
Аудио: 48 kHz, Dolby AC3, 2 ch, 192 kbps, русский
Раздача от:
Общее
Полное имя : Stanitsa.2013.O.DVDRip-AVC_[New-Team]_by_avproh1.mkv
Формат : Matroska
Версия формата : Version 4 / Version 2
Размер файла : 751 Мбайт
Продолжительность : 52 м.
Общий поток : 2002 Кбит/сек
Дата кодирования : UTC 2014-08-23 19:13:51
Программа кодирования : mkvmerge v7.1.0 ('Good Love') 64bit built on Jul 27 2014 13:06:55
Библиотека кодирования : libebml v1.3.0 + libmatroska v1.4.1
DURATION : 00:52:24.832000000
NUMBER_OF_FRAMES : 98276
NUMBER_OF_BYTES : 75475968
_STATISTICS_WRITING_APP : mkvmerge v7.1.0 ('Good Love') 64bit built on Jul 27 2014 13:06:55
_STATISTICS_WRITING_DATE_UTC : 2014-08-23 19:13:51
_STATISTICS_TAGS : BPS DURATION NUMBER_OF_FRAMES NUMBER_OF_BYTES
Видео
Идентификатор : 1
Формат : AVC
Формат/Информация : Advanced Video Codec
Профиль формата : High@L4.1
Параметр CABAC формата : Да
Параметр ReFrames формата : 8 кадров
Идентификатор кодека : V_MPEG4/ISO/AVC
Продолжительность : 52 м.
Битрейт : 1809 Кбит/сек
Ширина : 720 пикселей
Высота : 576 пикселей
Соотношение сторон : 16:9
Режим частоты кадров : Постоянный
Частота кадров : 25,000 кадров/сек
Стандарт вещания : PAL
Цветовое пространство : YUV
Субдискретизация насыщенности : 4:2:0
Битовая глубина : 8 бит
Тип развёртки : Прогрессивная
Бит/(Пиксели*Кадры) : 0.174
Размер потока : 664 Мбайт (88%)
Библиотека кодирования : x264 core 130 r2273 b3065e6
Настройки программы : cabac=1 / ref=8 / deblock=1:-3:-2 / analyse=0x3:0x113 / me=umh / subme=10 / psy=1 / psy_rd=1.00:0.05 / mixed_ref=1 / me_range=32 / chroma_me=1 / trellis=2 / 8x8dct=1 / cqm=0 / deadzone=21,11 / fast_pskip=1 / chroma_qp_offset=-3 / threads=9 / lookahead_threads=1 / sliced_threads=0 / nr=0 / decimate=0 / interlaced=0 / bluray_compat=0 / constrained_intra=0 / bframes=8 / b_pyramid=2 / b_adapt=2 / b_bias=0 / direct=3 / weightb=1 / open_gop=0 / weightp=2 / keyint=250 / keyint_min=25 / scenecut=40 / intra_refresh=0 / rc_lookahead=40 / rc=2pass / mbtree=1 / bitrate=1809 / ratetol=1.0 / qcomp=0.60 / qpmin=0 / qpmax=69 / qpstep=4 / cplxblur=20.0 / qblur=0.5 / ip_ratio=1.40 / aq=1:1.00
Язык : Russian
Default : Да
Forced : Нет
DURATION : 00:52:24.840000000
NUMBER_OF_FRAMES : 78621
NUMBER_OF_BYTES : 710834517
_STATISTICS_WRITING_APP : mkvmerge v7.1.0 ('Good Love') 64bit built on Jul 27 2014 13:06:55
_STATISTICS_WRITING_DATE_UTC : 2014-08-23 19:13:51
_STATISTICS_TAGS : BPS DURATION NUMBER_OF_FRAMES NUMBER_OF_BYTES
Аудио
Идентификатор : 2
Формат : AC-3
Формат/Информация : Audio Coding 3
Расширение режима : CM (complete main)
Параметр Endianness формата : Big
Идентификатор кодека : A_AC3
Продолжительность : 52 м.
Вид битрейта : Постоянный
Битрейт : 192 Кбит/сек
Каналы : 2 канала
Расположение каналов : Front: L R
Частота : 48,0 КГц
Битовая глубина : 16 бит
Метод сжатия : С потерями
Размер потока : 72,0 Мбайт (10%)
Язык : Russian
Default : Да
Forced : Нет






   Похожие торренты   Торрент   Размер 
В этой теме нет новых непрочитанных сообщений. Станица (2013) [01-12 из 12] DVDRip от New-Team | лицензия

198 | 101

8.74 ГБ

В этой теме нет новых непрочитанных сообщений. Станица [01-12 из 12] (2013) 2 x DVD9 от New-Team | Лицензия

18 | 17

15.67 ГБ

В этой теме нет новых непрочитанных сообщений. Дед 005 (2013) DVDRip-AVC от New-Team | Лицензия

75 | 7

743.11 МБ

В этой теме нет новых непрочитанных сообщений. Дед 005 (2013) DVDRip-AVC от New-Team | Лицензия

224 | 9

1.46 ГБ

В этой теме нет новых непрочитанных сообщений. Околофутбола (2013) DVDRip от New-Team | лицензия

76 | 5

1.46 ГБ

В этой теме нет новых непрочитанных сообщений. Мотыльки [01-04 из 04] (2013) DVDRip-AVC от New-Team | лицензия

113 | 35

2.8 ГБ

В этой теме нет новых непрочитанных сообщений. 1943 [01-16 из 16] (2013) DVDRip от New-Team | лицензия

775 | 358

10.79 ГБ




Вы не можете начинать темы
Вы не можете отвечать на сообщения
Вы не можете редактировать свои сообщения
Вы не можете удалять свои сообщения
Вы не можете добавлять вложения

Перейти:  
Для Мосгорсуда, Роскомнадзора и рекламодателей: mosgorsud-torrent[собачка]yandex.ru
 Вход
ppkBB3cker v.2 © 2008-2014 @ PPK
[ Time : 0.589s | 17 Queries | GZIP : Off ]

Торрент трекер RUTOR.IN, Не можете зайти на rutor.org? Какой новый адрес рутор? Какое зеркало рутор? Не работает rutor.org и зеркала? Тогда наш торрент специально для вас. Rutor.in неофициальное зеркало rutor. В случае если у Вас заблокирован rutor или вдруг Вы не можете на него зайти, то Вы без труда сможете скачать бесплатно и без рекламы последние новинки кино, игр, сериалов и прочего у нас, на Rutor.in. Не нужно использовать прокси, чтобы зайти на рутор, достаточно воспользоваться нашим ресурсом. Все новые фильмы, игры, сериалы, книги и музыка за 2013 и 2014 годы через торрент бесплатно. Скачивайте фильмы в хорошем качестве, игры для пк, xbox, playstation без регистрации. У нас вы найдете новые Зарубежные сериалы и Русские сериалы 2013, 2014, 2015 годов. Оставайтесь с нами, качайте любимые фильмы, игры, сериалы, книги и музыку.
cron