img image001 image001 image001 image001 image001 image001 image001 image001 image001 image001 image001 image001 image001 image001 image001

Planets Sun Sun Sun
Статистика раздачи
Автор: Nickolas3434 | Размер: 16.3 ГБ | Добавлен: 28 авг 2014
Раздают: 36    Качают: 65
Скачать торрент
Скачать торрент
Описание торрента

СообщениеДобавлено: 28 авг 2014 

Информация о фильме
Название: Убийство
Оригинальное название: The Killing
Год выхода: 2011
Жанр: Драма, криминал, детектив
Режиссер: Эдвард Бьянчи, Агнешка Холланд, Фил Абрахам
В ролях: Сет Джонсон, Эрик Ладин, Лиам Джеймс, Мирей Инос, Юэль Киннаман, Джейми Энн Оллман, Брент Секстон, Брендан Секстон III, Энни Корли, Билл Кэмпбелл
О фильме:
Сериал рассказывает об одном убийстве с трех точек зрения – детективов, приставленных к этому делу, семьи погибшей и подозреваемых. Сюжет также затрагивает местных политиков и их связь с этим делом. Постепенно становится ясно, что здесь нет случайностей, у каждого свой секрет. И хотя персонажи думают, что они продолжают жить дальше, их прошлое еще не оставило их в покое.
Общее
Полное имя : The Killing Season 1The.Killing.s01e10.rus.eng.avi
Формат : AVI
Формат/Информация : Audio Video Interleave
Размер файла : 1,26 Гбайт
Продолжительность : 45 м.
Общий поток : 3954 Кбит/сек
Программа кодирования : VirtualDubMod 1.5.10.2 (build 2540/release)
Библиотека кодирования : VirtualDubMod build 2540/release
Видео
Идентификатор : 0
Формат : MPEG-4 Visual
Профиль формата : Advanced Simple@L5
Параметр BVOP формата : 1
Параметр QPel формата : Нет
Параметр GMC формата : Без точки перехода
Параметр матрицы формата : Default (MPEG)
Идентификатор кодека : XVID
Идентификатор кодека/Подсказка : XviD
Продолжительность : 45 м.
Битрейт : 2007 Кбит/сек
Ширина : 720 пикселей
Высота : 400 пикселей
Соотношение сторон : 16:9
Частота кадров : 23,976 кадра/сек
Цветовое пространство : YUV
Субдискретизация насыщенности : 4:2:0
Битовая глубина : 8 бит
Тип развёртки : Прогрессивная
Метод сжатия : С потерями
Бит/(Пиксели*Кадры) : 0.291
Размер потока : 653 Мбайт (51%)
Библиотека кодирования : XviD 65
Аудио #1
Идентификатор : 1
Формат : AC-3
Формат/Информация : Audio Coding 3
Расширение режима : CM (complete main)
Параметр Endianness формата : Big
Идентификатор кодека : 2000
Продолжительность : 45 м.
Вид битрейта : Постоянный
Битрейт : 384 Кбит/сек
Каналы : 6 каналов
Расположение каналов : Front: L C R, Side: L R, LFE
Частота : 48,0 КГц
Битовая глубина : 16 бит
Метод сжатия : С потерями
Размер потока : 125 Мбайт (10%)
Выравнивание : Разделение по промежуткам
Продолжительность промежутка : 42 мс. (1,00 видеокадр)
Время предзагрузки промежутка : 500 мс.
Аудио #2
Идентификатор : 2
Формат : AC-3
Формат/Информация : Audio Coding 3
Расширение режима : CM (complete main)
Параметр Endianness формата : Big
Идентификатор кодека : 2000
Продолжительность : 45 м.
Вид битрейта : Постоянный
Битрейт : 384 Кбит/сек
Каналы : 6 каналов
Расположение каналов : Front: L C R, Side: L R, LFE
Частота : 48,0 КГц
Битовая глубина : 16 бит
Метод сжатия : С потерями
Размер потока : 125 Мбайт (10%)
Выравнивание : Разделение по промежуткам
Продолжительность промежутка : 42 мс. (1,00 видеокадр)
Время предзагрузки промежутка : 500 мс.
Аудио #3
Идентификатор : 3
Формат : AC-3
Формат/Информация : Audio Coding 3
Расширение режима : CM (complete main)
Параметр Endianness формата : Big
Идентификатор кодека : 2000
Продолжительность : 45 м.
Вид битрейта : Постоянный
Битрейт : 384 Кбит/сек
Каналы : 6 каналов
Расположение каналов : Front: L C R, Side: L R, LFE
Частота : 48,0 КГц
Битовая глубина : 16 бит
Метод сжатия : С потерями
Размер потока : 125 Мбайт (10%)
Выравнивание : Разделение по промежуткам
Продолжительность промежутка : 42 мс. (1,00 видеокадр)
Время предзагрузки промежутка : 500 мс.
Аудио #4
Идентификатор : 4
Формат : AC-3
Формат/Информация : Audio Coding 3
Расширение режима : CM (complete main)
Параметр Endianness формата : Big
Идентификатор кодека : 2000
Продолжительность : 45 м.
Вид битрейта : Постоянный
Битрейт : 384 Кбит/сек
Каналы : 6 каналов
Расположение каналов : Front: L C R, Side: L R, LFE
Частота : 48,0 КГц
Битовая глубина : 16 бит
Метод сжатия : С потерями
Размер потока : 125 Мбайт (10%)
Выравнивание : Разделение по промежуткам
Продолжительность промежутка : 42 мс. (1,00 видеокадр)
Время предзагрузки промежутка : 500 мс.
Аудио #5
Идентификатор : 5
Формат : AC-3
Формат/Информация : Audio Coding 3
Расширение режима : CM (complete main)
Параметр Endianness формата : Big
Идентификатор кодека : 2000
Продолжительность : 45 м.
Вид битрейта : Постоянный
Битрейт : 384 Кбит/сек
Каналы : 6 каналов
Расположение каналов : Front: L C R, Side: L R, LFE
Частота : 48,0 КГц
Битовая глубина : 16 бит
Метод сжатия : С потерями
Размер потока : 125 Мбайт (10%)
Выравнивание : Разделение по промежуткам
Продолжительность промежутка : 42 мс. (1,00 видеокадр)
Время предзагрузки промежутка : 500 мс.

01. Pilot / Пилотная серия
02. The Cage / Клетка
03. El Diablo / Дьявол
04. A Soundless Echo / Беззвучное Эхо
05. Super 8 / Фильм
06. What You Have Left / Что Осталось После Тебя
07. Vengeance / Месть
08. Stonewalled / Препятствие
09. Undertow / Глубинное Течение
10. I'll Let You Know When I Get There / Как Доберусь — Дам Знать
11. Missing / Исчезновение
12. Beau Soleil / Бо Соле
13. Orpheus Descending / Орфей Спускается в Ад


Страна: США, Канада
Продолжительность: 13 x ~ 00:45:00
Перевод: Перевод 1: Профессиональный (двухголосый закадровый) (Кубик в Кубе)
Перевод 2: Профессиональный (многоголосый закадровый) (LostFilm)
Перевод 3: Авторский (одноголосый закадровый) (Ю.Сербин)
Файл
Кодек: XviD
Качество: BDRip
Видео: 720x400 (1.80:1), 23.976 fps, XviD build 65 ~1996 kbps avg, 0.29 bit/pixel
Звук:
Audio Rus: 48 kHz, AC3 Dolby Digital, 3/2 (L,C,R,l,r) + LFE ch, ~384.00 kbps avg (Кубик в Кубе)
Audio Rus: 48 kHz, AC3 Dolby Digital, 3/2 (L,C,R,l,r) + LFE ch, ~384.00 kbps avg (LostFilm)
Audio Rus: 48 kHz, AC3 Dolby Digital, 3/2 (L,C,R,l,r) + LFE ch, ~384.00 kbps avg (Ю.Сербин)
Audio Ukr: 48 kHz, AC3 Dolby Digital, 3/2 (L,C,R,l,r) + LFE ch, ~384.00 kbps avg (LPF.tv)
Audio Eng: 48 kHz, AC3 Dolby Digital, 3/2 (L,C,R,l,r) + LFE ch, ~384.00 kbps avg (Original)

Релиз от: casstudio Источник: HDClub Рип: ЛП



   Похожие торренты   Торрент   Размер 
В этой теме нет новых непрочитанных сообщений. Убийство / The Killing [S01] (2011) BDRip 720p | LostFilm, Кубик в Кубе, Сербин

4 | 2

38.96 ГБ

В этой теме нет новых непрочитанных сообщений. Убийство / The Killing [S01] (2011) WEB-DL 720p от NovaFilm

5 | 8

19.76 ГБ

В этой теме нет новых непрочитанных сообщений. Убийство / The Killing [S01] (2011) WEB-DLRip от NovaFilm

7 | 3

5.07 ГБ

В этой теме нет новых непрочитанных сообщений. Убийство / The Killing [S01] (2011) WEB-DLRip | LostFilm

41 | 32

6.16 ГБ

В этой теме нет новых непрочитанных сообщений. Убийство / The Killing [01x01-13 из 13] (2011) WEB-DLRip-AVC

0 | 2

10.94 ГБ

В этой теме нет новых непрочитанных сообщений. Убийство / The Killing [S01] (2011) WEB-DL 720p | LostFilm

22 | 46

18.2 ГБ

В этой теме нет новых непрочитанных сообщений. Убийство / The Killing [S01] (2011) HDTVRip | Кубик в Кубе

15 | 7

5.51 ГБ




Вы не можете начинать темы
Вы не можете отвечать на сообщения
Вы не можете редактировать свои сообщения
Вы не можете удалять свои сообщения
Вы не можете добавлять вложения

Перейти:  
Для Мосгорсуда, Роскомнадзора и рекламодателей: mosgorsud-torrent[собачка]yandex.ru
 Вход
ppkBB3cker v.2 © 2008-2014 @ PPK
[ Time : 0.065s | 17 Queries | GZIP : Off ]

cron