img image001 image001 image001 image001 image001 image001 image001 image001 image001 image001 image001 image001 image001 image001 image001

Planets Sun Sun Sun
Статистика раздачи
Автор: Nickolas3434 | Размер: 14.51 ГБ | Добавлен: 31 авг 2014
Раздают: 8    Качают: 21
Скачать торрент
Скачать торрент
Описание торрента

СообщениеДобавлено: 31 авг 2014 

Информация о фильме
Название: Старшеклассники 3
Год выхода: 2008
Жанр: Молодёжный, драма, мелодрама, комедия, семейный
Режиссёр: Ядвига Закржевская
В ролях: Григорий Адаменко, Михаил Быстров, Светлана Жигуленко, Валерия Варченко, Виктория Селиверстова, Юлия Ерусова, Вадим Козлов, Наталья Бахматова, Валентина Егоренкова, Юлия Кудояр, Максим Демченко, Алексей Симонов, Григорий Татаренко, Павел Татаренко, Олег Леваков, Андрей Пынзару, Алексей Щуров и др.
О фильме: Итак, знакомьтесь с новыми старшеклассниками: Марина Левицкая, Андрей Сотник, Игорь Чернов, Олеся Леонтьева. Что же касается нынешних героев, то и они продолжают свою жизнь в этом сезоне. В ней все так же славно директорствует Борис Максимович Привалов, или — Борман, все так же борется с учащимися биологичка Зоя Захаровна Мухина, или — Муха ЗЗ. Место секретарши по-прежнему занимает Лена Березкина. Охраняют покой и учебный процесс Антон Заров и Александр Заботин. Место Чижа в телестудии осваивает Катя Воронина, известная всем под именем Ворона, а сам Чижов теперь трудится на благо родной школы в качестве завхоза. Лиза продолжает учить уму разуму малышей в классе продленного дня, а братья Вячеслав и Ярослав Приходько — кормить учащихся вкусными завтраками и общаться с представительницами прекрасного пола.

Выпущено: ТРК "Петербург", Россия
Продолжительность: 60 x ~ 00:26:00
Перевод: Не требуется
Файл
Качество: SATRip
Видео: XviD, ~ 1200 Кбит/с, 704x416 (1.692), 25 кадр/с
Аудио: Русский, 48000 Гц, 128 Кбит/с, 2 канала (Стерео)

01. Новенькие
02. Подозрительное лицо
03. Часы
04. Вечеринка у Олеси
05. Первое сентября
06. Трудовая повинность
07. Кража
08. Запретная зона
09. Подозреваемый
10. Презумпция невиновности
11. Чувство справедливости
12. Важные улики
13. Прогульщики
14. Директриса
15. День самоуправления
16. Конверт
17. Мат в два хода
18. Месть
19. Наказание без преступления
20. Шахматный романс
21. Конец связи
22. Школьные страсти
23. Последний шанс
24. Полный прием
25. Муки совести
26. Конфликты
27. Последствия отравления
28. Непостоянный ребенок
29. Личный дневник
30. Привет из 1968 года
31. Тени прошлого
32. Каждому свое
33. Опасные гастроли
34. Финансовый кризис
35. Скользкая дорожка
36. Сердечный приступ
37. Покатались
38. Sorry, детка
39. Следствие по делу
40. Без вины виноватый
41. Смелое предложение
42. Случайное знакомство
43. Тайный поклонник
44. Творческий вечер
45. Любовь и надежда
46. Эксклюзивное видео
47. Голая правда
48. Расплата за любовь
49. Дядя Серёжа
50. Туман в голове
51. План Чижа
52. Узник
53. Постановка по Лермонтову
54. Литературные страдания
55. Сцена, которой нет в романе
56. Герои нашего времени
57. Боль
58. Раскаяние
59. С Новым Годом!
60. Финал
General
Complete name : Sklass_3_001_SATRip.avi
Format : AVI
Format/Info : Audio Video Interleave
File size : 250 MiB
Duration : 26mn 19s
Overall bit rate : 1 329 Kbps
Writing application : MEncoder 1.0rc2-4.2.1
Writing library : MPlayer
Video
ID : 0
Format : MPEG-4 Visual
Format profile : Advanced Simple@L5
Format settings, BVOP : 2
Format settings, QPel : No
Format settings, GMC : No warppoints
Format settings, Matrix : Default (MPEG)
Codec ID : XVID
Codec ID/Hint : XviD
Duration : 26mn 19s
Bit rate : 1 188 Kbps
Width : 704 pixels
Height : 416 pixels
Display aspect ratio : 1.692
Frame rate : 25.000 fps
Color space : YUV
Chroma subsampling : 4:2:0
Bit depth : 8 bits
Scan type : Progressive
Compression mode : Lossy
Bits/(Pixel*Frame) : 0.162
Stream size : 224 MiB (89%)
Writing library : XviD 1.1.2 (UTC 2006-11-01)
Audio
ID : 1
Format : MPEG Audio
Format version : Version 1
Format profile : Layer 3
Mode : Joint stereo
Mode extension : MS Stereo
Codec ID : 55
Codec ID/Hint : MP3
Duration : 26mn 19s
Bit rate mode : Constant
Bit rate : 128 Kbps
Channel(s) : 2 channels
Sampling rate : 48.0 KHz
Compression mode : Lossy
Delay relative to video : 40ms
Stream size : 24.1 MiB (10%)
Alignment : Aligned on interleaves
Interleave, duration : 24 ms (0.60 video frame)
Interleave, preload duration : 504 ms


Релиз от: anprivate



   Похожие торренты   Торрент   Размер 
В этой теме нет новых непрочитанных сообщений. Старшеклассники [S03] (2008) TVRip, SATRip

0 | 2

14.53 ГБ

В этой теме нет новых непрочитанных сообщений. Старшеклассники [S02] (2007-2008) TVRip, SATRip, DVDRip

0 | 67

36.85 ГБ

В этой теме нет новых непрочитанных сообщений. Старшеклассники [02х01-03 из 167] (2007-2008) SATRip от ivandubskoj

2 | 8

2.05 ГБ

В этой теме нет новых непрочитанных сообщений. Старшеклассники [02х01-31, 37-38 из 167] (2007-2008) SATRip от ivandubskoj

2 | 13

11.28 ГБ

В этой теме нет новых непрочитанных сообщений. Старшеклассники [02х01-30 из 167] (2007-2008) SATRip от ivandubskoj

0 | 5

10.59 ГБ

В этой теме нет новых непрочитанных сообщений. Старшеклассники [02х01-26 из 167] (2007-2008) SATRip от ivandubskoj

0 | 5

9.22 ГБ

В этой теме нет новых непрочитанных сообщений. Старшеклассники [02х01-08 из 167] (2007-2008) SATRip от ivandubskoj

3 | 4

2.72 ГБ




Вы не можете начинать темы
Вы не можете отвечать на сообщения
Вы не можете редактировать свои сообщения
Вы не можете удалять свои сообщения
Вы не можете добавлять вложения

Перейти:  
Для Мосгорсуда, Роскомнадзора и рекламодателей: mosgorsud-torrent[собачка]yandex.ru
 Вход
ppkBB3cker v.2 © 2008-2014 @ PPK
[ Time : 0.026s | 15 Queries | GZIP : Off ]

Торрент трекер RUTOR.IN, Не можете зайти на rutor.org? Какой новый адрес рутор? Какое зеркало рутор? Не работает rutor.org и зеркала? Тогда наш торрент специально для вас. Rutor.in неофициальное зеркало rutor. В случае если у Вас заблокирован rutor или вдруг Вы не можете на него зайти, то Вы без труда сможете скачать бесплатно и без рекламы последние новинки кино, игр, сериалов и прочего у нас, на Rutor.in. Не нужно использовать прокси, чтобы зайти на рутор, достаточно воспользоваться нашим ресурсом. Все новые фильмы, игры, сериалы, книги и музыка за 2013 и 2014 годы через торрент бесплатно. Скачивайте фильмы в хорошем качестве, игры для пк, xbox, playstation без регистрации. У нас вы найдете новые Зарубежные сериалы и Русские сериалы 2013, 2014, 2015 годов. Оставайтесь с нами, качайте любимые фильмы, игры, сериалы, книги и музыку.