img image001 image001 image001 image001 image001 image001 image001 image001 image001 image001 image001 image001 image001 image001 image001

Planets Sun Sun Sun
Статистика раздачи
Автор: Nickolas3434 | Размер: 39.38 ГБ | Добавлен: 02 сен 2014
Раздают: 156    Качают: 114
Скачать торрент
Скачать торрент
Описание торрента

СообщениеДобавлено: 02 сен 2014 

Информация о фильме
Название: Хранилище 13
Оригинальное название: Warehouse 13
Год выхода: 2009
Жанр: Фантастика, драма, детектив
Режиссер: Тауния Маккирнан, Константин Макрис, Стивен Серджик
В ролях: Эдди МакКлинток, Джоэнн Келли, Сол Рубинек, Дженелл Уильямс, Эллисон Скальотти, Си Си Эйч Паундер, Саймон Рейнольдс, Аарон Эшмор, Джейми Мюррэй, Саша Ройз
О фильме:
После спасения жизни президента двух агентов Секретной службы переводят на секретный объект в штате Южная Дакота. Там содержатся сверхъестественные вещи, которые правительство США собирало в течение столетий. Их новое назначение — вернуть часть пропавших вещей и расследовать сообщения о новых.

Страна: США
Студия: SyFy, Universal Cable Productions
Продолжительность: 65 x ~ 00:43:00
Перевод: Профессиональный (многоголосый, закадровый) [LostFilm]
Файл
Формат: AVI
Качество: HDTVRip (Сезон 1), WEB-DLRip (Сезоны 2-5)
Видео: XviD, 720x400, ~1800 kbps, 23.976 fps
Аудио: AC3, 48.0 KHz, 6 ch, 192 Kbps
Субтитры: Нет
Семпл

General
Complete name : E:KinoHranilishhe.13.XviD.LF.GeneralfilmHranilishhe.13.S03.2011.XviD.WEB-DLRip.LF.GeneralfilmHranilishhe.13.s03e01.2011.XviD.WEB-DLRip.LF.Generalfilm.avi
Format : AVI
Format/Info : Audio Video Interleave
File size : 629 MiB
Duration : 43mn 52s
Overall bit rate : 2 003 Kbps
Writing application : VirtualDubMod 1.5.10.3 | www.virtualdub-fr.org || (build 2550/release)
Writing library : VirtualDubMod build 2550/release
Video
ID : 0
Format : MPEG-4 Visual
Format profile : Advanced Simple@L5
Format settings, BVOP : 2
Format settings, QPel : No
Format settings, GMC : No warppoints
Format settings, Matrix : Default (H.263)
Codec ID : XVID
Codec ID/Hint : XviD
Duration : 43mn 52s
Bit rate : 1 801 Kbps
Width : 720 pixels
Height : 400 pixels
Display aspect ratio : 16:9
Frame rate : 23.976 fps
Color space : YUV
Chroma subsampling : 4:2:0
Bit depth : 8 bits
Scan type : Progressive
Compression mode : Lossy
Bits/(Pixel*Frame) : 0.261
Stream size : 565 MiB (90%)
Writing library : XviD 1.2.1 (UTC 2008-12-04)
Audio
ID : 1
Format : AC-3
Format/Info : Audio Coding 3
Mode extension : CM (complete main)
Format settings, Endianness : Big
Codec ID : 2000
Duration : 43mn 52s
Bit rate mode : Constant
Bit rate : 192 Kbps
Channel count : 6 channels
Channel positions : Front: L C R, Side: L R, LFE
Sampling rate : 48.0 KHz
Bit depth : 16 bits
Compression mode : Lossy
Stream size : 60.3 MiB (10%)
Alignment : Split accross interleaves
Interleave, duration : 42 ms (1.00 video frame)
Interleave, preload duration : 500 ms

Релиз от:



   Похожие торренты   Торрент   Размер 
В этой теме нет новых непрочитанных сообщений. Хранилище 13 / Warehouse 13 [S01-05] (2009-2014) WEB-DLRip от Generalfilm | КПК | LostFilm

56 | 135

12.42 ГБ

В этой теме нет новых непрочитанных сообщений. Хранилище 13 / Warehouse 13 [S01-04] (2009-2013) HDTVRip, WEB-DLRip | LostFilm | P

169 | 132

24.47 ГБ

В этой теме нет новых непрочитанных сообщений. Хранилище 13 / Warehouse 13 [S01-05] (2009-2014) WEB-DLRip | LostFilm

122 | 301

28.11 ГБ

В этой теме нет новых непрочитанных сообщений. Хранилище 13 / Warehouse 13 [S01-05] (2009-2014) WEB-DLRip | LostFilm

38 | 73

43.41 ГБ

В этой теме нет новых непрочитанных сообщений. Хранилище 13 / Warehouse 13 [S01-04] (2009-2013) WEB-DLRip | LostFilm

7 | 10

24.65 ГБ

В этой теме нет новых непрочитанных сообщений. Хранилище 13 / Warehouse 13 [S05] (2014) WEB-DLRip | LostFilm

763 | 709

3.47 ГБ

В этой теме нет новых непрочитанных сообщений. Хранилище 13 / Warehouse 13 [S04] (2012-2013) WEB-DLRip, HDTVRip | LostFilm

94 | 89

9.01 ГБ




Вы не можете начинать темы
Вы не можете отвечать на сообщения
Вы не можете редактировать свои сообщения
Вы не можете удалять свои сообщения
Вы не можете добавлять вложения

Перейти:  
Для Мосгорсуда, Роскомнадзора и рекламодателей: mosgorsud-torrent[собачка]yandex.ru
 Вход
ppkBB3cker v.2 © 2008-2014 @ PPK
[ Time : 0.119s | 16 Queries | GZIP : Off ]

cron