img image001 image001 image001 image001 image001 image001 image001 image001 image001 image001 image001 image001 image001 image001 image001

Planets Sun Sun Sun
Статистика раздачи
Автор: Nickolas3434 | Размер: 2.17 ГБ | Добавлен: 03 сен 2014
Раздают: 1064    Качают: 152
Скачать торрент
Скачать торрент
Описание торрента

СообщениеДобавлено: 03 сен 2014 

Информация о фильме
Название: Бывших не бывает
Год выхода: 2013
Жанр: Боевик, драма
Режиссер: Зиновий Ройзман
В ролях: Сергей Горобченко, Павел Трубинер, Ольга Ломоносова, Юрий Назаров, Ольга Филиппова, Наталья Варнакова, Антон Сёмкин, Дмитрий Быковский-Ромашов, Азиз Бейшеналиев, Геннадий Пачис, Ангелина Добророднова, Николай Быстров, Ника Балина
О фильме:
В семье Виктора Платонова случилась беда: тяжело ранен сын. Спасти его может только операция стоимостью в 500 тысяч долларов. Таких денег у Платонова нет, однако операцию готов оплатить местный криминальный авторитет. Все, что нужно Виктору — доставить в соседний город некий товар. Выбор исполнителя для этого дела неслучаен: Платонов — бывший сотрудник специального подразделения разведки — «Группа 6»
Страна: Россия
Студия: Производство студии"ЛЕМАН"
Продолжительность: 4x ~ 00:46:00
Перевод: Не требуется
Файл
Кодек: XviD
Качество: IPTVRip
Видео: 720x400 (1.80:1), 25 fps, XviD MPEG-4 ~1458 kbps avg, 0.20 bit/pixel
Звук: 48 kHz, AC3 Dolby Digital, 2/0 (L,R) ch, ~192
Сэмпл

В файле присутствуют деффекты:
1. Картинка иногда сыпется.
2. На пол секунды иногда пропадает звук.
Увы сделать ничего не смог так вещал канал.
Общее
Полное имя : D:Byvshih_ne_byvaet_1-4iz4_2013_XviD_IPTVRipByvshih_ne_byvaet_1_iz_4_2013_IPTVRip.avi
Формат : AVI
Формат/Информация : Audio Video Interleave
Размер файла : 555 Мбайт
Продолжительность : 46 м.
Общий поток : 1661 Кбит/сек
Программа кодирования : Lavf52.39.1
Библиотека кодирования : VirtualDub build 35491/release
Видео
Идентификатор : 0
Формат : MPEG-4 Visual
Профиль формата : Advanced Simple@L5
Параметр BVOP формата : 2
Параметр QPel формата : Нет
Параметр GMC формата : Без точки перехода
Параметр матрицы формата : Default (H.263)
Режим смешивания : Сжатый битовый поток
Идентификатор кодека : XVID
Идентификатор кодека/Подсказка : XviD
Продолжительность : 46 м.
Битрейт : 1459 Кбит/сек
Ширина : 720 пикселей
Высота : 400 пикселей
Соотношение сторон : 16:9
Частота кадров : 25,000 кадров/сек
Цветовое пространство : YUV
Субдискретизация насыщенности : 4:2:0
Битовая глубина : 8 бит
Тип развёртки : Прогрессивная
Метод сжатия : С потерями
Бит/(Пиксели*Кадры) : 0.203
Размер потока : 488 Мбайт (88%)
Библиотека кодирования : XviD 65
Аудио
Идентификатор : 1
Формат : AC-3
Формат/Информация : Audio Coding 3
Расширение режима : CM (complete main)
Параметр Endianness формата : Big
Идентификатор кодека : 2000
Продолжительность : 46 м.
Вид битрейта : Постоянный
Битрейт : 192 Кбит/сек
Каналы : 2 канала
Расположение каналов : Front: L R
Частота : 48,0 КГц
Битовая глубина : 16 бит
Метод сжатия : С потерями
Размер потока : 64,2 Мбайт (12%)
Выравнивание : Соединение по промежуткам
Продолжительность промежутка : 40 мс. (1,00 видеокадр)
Время предзагрузки промежутка : 512 мс.



   Похожие торренты   Торрент   Размер 
В этой теме нет новых непрочитанных сообщений. Бывших не бывает [01-04 из 04] (2013) WEB-DL 1080p от Files-x

15 | 1

5.86 ГБ

В этой теме нет новых непрочитанных сообщений. Бывших не бывает [01 из 04] (2013) HDTVRip-AVC от GeneralFilm

25 | 3

2.97 ГБ

В этой теме нет новых непрочитанных сообщений. Бывших не бывает [01-02 из 04] (2013) HDTVRip от GeneralFilm

241 | 26

2.43 ГБ

В этой теме нет новых непрочитанных сообщений. Бывших не бывает [01-04 из 04] (2013) WEB-DLRip от Files-x

49 | 2

2.34 ГБ

В этой теме нет новых непрочитанных сообщений. Бывших не бывает [01 из 04] (2013) HDTVRip-AVC от GeneralFilm

6 | 0

1.45 ГБ

В этой теме нет новых непрочитанных сообщений. Бывших не бывает [01-02 из 04] (2013) HDTVRip от GeneralFilm

97 | 14

1.19 ГБ

В этой теме нет новых непрочитанных сообщений. Бывших не бывает [01-02 из 04] (2013) WEB-DLRip-AVC от Files-x

63 | 11

3.06 ГБ




Вы не можете начинать темы
Вы не можете отвечать на сообщения
Вы не можете редактировать свои сообщения
Вы не можете удалять свои сообщения
Вы не можете добавлять вложения

Перейти:  
Для Мосгорсуда, Роскомнадзора и рекламодателей: mosgorsud-torrent[собачка]yandex.ru
 Вход
ppkBB3cker v.2 © 2008-2014 @ PPK
[ Time : 0.032s | 14 Queries | GZIP : Off ]
CGP output time : 0.024s | 5 Queries | GZIP : Off

Торрент трекер RUTOR.IN, Не можете зайти на rutor.org? Какой новый адрес рутор? Какое зеркало рутор? Не работает rutor.org и зеркала? Тогда наш торрент специально для вас. Rutor.in неофициальное зеркало rutor. В случае если у Вас заблокирован rutor или вдруг Вы не можете на него зайти, то Вы без труда сможете скачать бесплатно и без рекламы последние новинки кино, игр, сериалов и прочего у нас, на Rutor.in. Не нужно использовать прокси, чтобы зайти на рутор, достаточно воспользоваться нашим ресурсом. Все новые фильмы, игры, сериалы, книги и музыка за 2013 и 2014 годы через торрент бесплатно. Скачивайте фильмы в хорошем качестве, игры для пк, xbox, playstation без регистрации. У нас вы найдете новые Зарубежные сериалы и Русские сериалы 2013, 2014, 2015 годов. Оставайтесь с нами, качайте любимые фильмы, игры, сериалы, книги и музыку.