img image001 image001 image001 image001 image001 image001 image001 image001 image001 image001 image001 image001 image001 image001 image001

Planets Sun Sun Sun
Статистика раздачи
Автор: Nickolas3434 | Размер: 13.74 ГБ | Добавлен: 04 сен 2014
Раздают: 9    Качают: 11
Скачать торрент
Скачать торрент
Описание торрента

СообщениеДобавлено: 04 сен 2014 

Информация о фильме
Название: Друзья
Оригинальное название: Friends
Год выхода: 2002-2003
Жанр: Sitcom
Режиссер: David Crane, Marta Kauffman
В ролях: Jennifer Aniston, Courteney Cox Arquette, Lisa Kudrow, Matt LeBlanc, Matthew Perry, David Schwimmer
О фильме:
Главные герои — шестеро друзей — Рейчел, Моника, Фиби, Джоуи, Чендлер и Росс. Три девушки и три парня, которые дружат, живут по соседству, вместе убивают время и противостоят жестокой реальности, делятся своими секретами и иногда очень сильно влюбляются.
Сериал признан одним из лучших комедийных сериалов в истории американского телевидения и стал одним из наиболее заметных проектов 1990-х годов. Сама постановка и творческая группа получили множество наград, в том числе шесть премий «Эмми» и премию «Золотой глобус».
Страна: США
Студия: Канал NBC
Продолжительность: 24 x ∼22мин
Файл
Формат: m4v
Качество: BDRip-AVC
Видео: H.264, 1024x576 (16:9), ∼2900kbps, 23,976fps
Звук: AAC, 2 channels, 48.0 KHz, 160 kbps VBR
Аудио 1: Русский - профессиональный многоголосый закадровый
Аудио 2: Украинский - профессиональный многоголосый закадровый
Аудио 3: Английский - оригинал
Субтитры: русские, английские
Метатэги: прописаны
Навигация по главам: есть
Раздача будет полезна пользователям iOS и OS X платформ.
При просмотре на Windows рекомендую пользоваться iTunes или VLC media player.

6 серия
x264 [info]: frame I:443 Avg QP:15.85 size: 82718 PSNR Mean Y:48.75 U:50.51 V:52.13 Avg:49.42 Global:48.68
x264 [info]: frame P:8674 Avg QP:19.14 size: 31909 PSNR Mean Y:44.98 U:47.88 V:49.95 Avg:45.91 Global:45.63
x264 [info]: frame B:36897 Avg QP:21.81 size: 9458 PSNR Mean Y:43.45 U:47.24 V:49.85 Avg:44.54 Global:44.08
x264 [info]: consecutive B-frames: 1.2% 0.5% 2.0% 13.8% 20.8% 54.0% 5.5% 1.1% 0.5% 0.1% 0.1% 0.3%
x264 [info]: mb I I16..4: 3.0% 82.4% 14.6%
x264 [info]: mb P I16..4: 0.7% 8.4% 1.2% P16..4: 39.9% 30.9% 15.2% 0.0% 0.0% skip: 3.7%
x264 [info]: mb B I16..4: 0.0% 0.6% 0.1% B16..8: 40.7% 11.3% 2.9% direct: 7.8% skip:36.6% L0:42.9% L1:44.0% BI:13.0%
x264 [info]: 8x8 transform intra:81.8% inter:61.8%
x264 [info]: coded y,uvDC,uvAC intra: 90.0% 84.3% 61.4% inter: 31.8% 21.4% 4.5%
x264 [info]: i16 v,h,dc,p: 57% 13% 7% 23%
x264 [info]: i8 v,h,dc,ddl,ddr,vr,hd,vl,hu: 16% 9% 6% 8% 12% 13% 12% 12% 12%
x264 [info]: i4 v,h,dc,ddl,ddr,vr,hd,vl,hu: 12% 9% 3% 8% 14% 15% 13% 12% 12%
x264 [info]: i8c dc,h,v,p: 40% 21% 24% 16%
x264 [info]: Weighted P-Frames: Y:1.9% UV:1.3%
x264 [info]: ref P L0: 38.5% 11.0% 22.6% 6.5% 7.4% 4.0% 4.9% 2.1% 2.9% 0.0% 0.0%
x264 [info]: ref B L0: 73.3% 13.0% 5.3% 3.1% 2.0% 1.9% 1.0% 0.4%
x264 [info]: ref B L1: 93.8% 6.2%
x264 [info]: SSIM Mean Y:0.9774757 (16.473db)
x264 [info]: PSNR Mean Y:43.787 U:47.395 V:49.888 Avg:44.841 Global:44.365 kb/s:2761.23
General
Format : MPEG-4
Format profile : Base Media / Version 2
Codec ID : mp42
File size : 746 MiB
Duration : 32mn 0s
Overall bit rate mode : Variable
Overall bit rate : 3 258 Kbps
Collection : Friends
Season : 9
Album : Friends, Season 9
Part : 6
Track name : The One With the Male Nanny
Track name/Position : 6
Track name/Total : 23
Performer : Friends
Genre : Comedy
ContentType : TV Show
Deion : In the Emmy Award-winning comedy's 200th episode, Ross jealously mocks Rachel's choice of an oversensitive male nanny, Sandy, for Emma. / The hilarity continues with season nine of the hit comedy series as Phoebe is confronted with some tough romantic choices between new boyfriend Mike (Paul Rudd) and old boyfriend David (Hank Azaria). Plus, Rachel tackles motherhood and Monica and Chandler become "inspired" to start their own family. With guest stars including Freddie Prinze, Jr. (as a super-sensitive male nanny), Christina Applegate (as Rachel's self-centered sister), John Stamos (as a sperm donor) and Dermot Mulroney (as Rachel's handsome workplace rival), discover why Friends has been called the top-rated TV series of its time. Season nine includes episodes where Joey and Rachel mistakenly become engaged, Chandler spends Christmas in Tulsa, Monica exposes herself at a karaoke bar, Joey lands a role with Jeff Goldblum by "holding it in," Phoebe's got a vendetta against a home furnishings store and the gang goes to Ross's paleontology convention in Barbados.
Recorded date : 2003-05-15
Encoded date : UTC 2014-07-15 12:13:39
Tagged date : UTC 2014-08-05 09:41:45
Cover : Yes
Rating : None
TVNetworkName : NBC
Part_ID : 906
LongDeion : In the Emmy Award-winning comedy's 200th episode, Ross jealously mocks Rachel's choice of an oversensitive male nanny, Sandy (Freddie Prinze, Jr. - "Scooby Doo," "I Know What You Did Last Summer"), for Emma. Meanwhile, Phoebe must choose between two ardent suitors: new boyfriend Mike (recurring guest star Paul Rudd) or visiting former boyfriend David (recurring guest star Hank Azaria). And Chandler feels threatened by Monica's constant chatter about a male co-worker whose sense of humor outwits his.
AppleStoreCountry : United States
AppleStoreCatalogID : 315764455
AlbumTitleID : 166638839
PlayListID : 315221423
ContentRating : us-tv|TV-14|500|
Video #1
ID : 1
Format : AVC
Format/Info : Advanced Video Codec
Format profile : High@L4.0
Format settings, CABAC : Yes
Format settings, ReFrames : 9 frames
Codec ID : avc1
Codec ID/Info : Advanced Video Coding
Duration : 31mn 59s
Bit rate : 2 761 Kbps
Width : 1 024 pixels
Height : 576 pixels
Display aspect ratio : 16:9
Frame rate mode : Variable
Frame rate : 23.976 fps
Minimum frame rate : 23.974 fps
Maximum frame rate : 23.981 fps
Color space : YUV
Chroma subsampling : 4:2:0
Bit depth : 8 bits
Scan type : Progressive
Bits/(Pixel*Frame) : 0.195
Stream size : 632 MiB (85%)
Writing library : x264 core 130 r2273 b3065e6
Encoding settings : cabac=1 / ref=9 / deblock=1:-2:-1 / analyse=0x3:0x113 / me=umh / subme=10 / psy=1 / psy_rd=1.00:0.00 / mixed_ref=1 / me_range=32 / chroma_me=1 / trellis=2 / 8x8dct=1 / cqm=0 / deadzone=21,11 / fast_pskip=1 / chroma_qp_offset=-2 / threads=6 / lookahead_threads=1 / sliced_threads=0 / nr=0 / decimate=1 / interlaced=0 / bluray_compat=0 / constrained_intra=0 / bframes=11 / b_pyramid=2 / b_adapt=2 / b_bias=0 / direct=1 / weightb=1 / open_gop=0 / weightp=2 / keyint=240 / keyint_min=24 / scenecut=40 / intra_refresh=0 / rc_lookahead=40 / rc=crf / mbtree=1 / crf=18.0 / qcomp=0.60 / qpmin=0 / qpmax=69 / qpstep=4 / ip_ratio=1.40 / aq=1:1.00
Language : English
Encoded date : UTC 2014-07-15 12:13:39
Tagged date : UTC 2014-07-15 13:58:57
Color primaries : BT.709
Transfer characteristics : BT.709
Matrix coefficients : BT.709
Video #2
ID : 7
Format : JPEG
Codec ID : jpeg
Duration : 31mn 59s
Bit rate mode : Variable
Bit rate : 1 272 bps
Width : 640 pixels
Height : 360 pixels
Display aspect ratio : 16:9
Frame rate mode : Variable
Frame rate : 0.003 fps
Minimum frame rate : 0.001 fps
Maximum frame rate : 0.030 fps
Color space : YUV
Chroma subsampling : 4:2:0
Bit depth : 8 bits
Compression mode : Lossy
Bits/(Pixel*Frame) : 1.840
Stream size : 259 KiB (0%)
Language : English
Encoded date : UTC 2014-08-05 08:54:26
Tagged date : UTC 2014-08-05 08:54:26
Audio #1
ID : 2
Format : AAC
Format/Info : Advanced Audio Codec
Format profile : LC
Codec ID : 40
Duration : 31mn 59s
Bit rate mode : Variable
Bit rate : 160 Kbps
Maximum bit rate : 301 Kbps
Channel(s) : 2 channels
Channel positions : Front: L R
Sampling rate : 48.0 KHz
Compression mode : Lossy
Stream size : 36.6 MiB (5%)
Language : Russian
Encoded date : UTC 2014-07-15 12:13:39
Tagged date : UTC 2014-07-15 13:58:56
Audio #2
ID : 3
Format : AAC
Format/Info : Advanced Audio Codec
Format profile : LC
Codec ID : 40
Duration : 31mn 56s
Bit rate mode : Variable
Bit rate : 160 Kbps
Maximum bit rate : 303 Kbps
Channel(s) : 2 channels
Channel positions : Front: L R
Sampling rate : 48.0 KHz
Compression mode : Lossy
Stream size : 36.5 MiB (5%)
Language : Ukrainian
Encoded date : UTC 2014-07-15 12:13:39
Tagged date : UTC 2014-07-15 13:58:56
Audio #3
ID : 4
Format : AAC
Format/Info : Advanced Audio Codec
Format profile : LC
Codec ID : 40
Duration : 32mn 0s
Bit rate mode : Variable
Bit rate : 160 Kbps
Maximum bit rate : 297 Kbps
Channel(s) : 2 channels
Channel positions : Front: L R
Sampling rate : 48.0 KHz
Compression mode : Lossy
Stream size : 36.6 MiB (5%)
Language : English
Encoded date : UTC 2014-07-15 12:13:39
Tagged date : UTC 2014-07-15 13:58:56
Text #1
ID : 6
Format : Timed Text
Muxing mode : sbtl
Codec ID : tx3g
Duration : 31mn 50s
Bit rate mode : Variable
Bit rate : 133 bps
Stream size : 30.9 KiB (0%)
Language : Russian
Encoded date : UTC 2014-08-05 08:53:42
Tagged date : UTC 2014-08-05 08:54:24
Text #2
ID : 8
Format : Timed Text
Muxing mode : sbtl
Codec ID : tx3g
Duration : 31mn 50s
Bit rate mode : Variable
Bit rate : 82 bps
Stream size : 19.2 KiB (0%)
Language : English
Encoded date : UTC 2014-08-05 09:41:43
Tagged date : UTC 2014-08-05 09:41:43
Menu
ID : 5
Codec ID : text
Duration : 31mn 59s
Language : English
Encoded date : UTC 2014-07-15 12:13:39
Tagged date : UTC 2014-07-15 13:58:57
Bit rate mode : CBR



   Похожие торренты   Торрент   Размер 
В этой теме нет новых непрочитанных сообщений. Друзья / Friends [S08] (2001-2002) BDRip-AVC | iPad

6 | 3

12.71 ГБ

В этой теме нет новых непрочитанных сообщений. Друзья / Friends [S10] (2003-2004) BDRip-AVC | iPad

30 | 12

9.65 ГБ

В этой теме нет новых непрочитанных сообщений. Друзья / Friends [S09] (2002-2003) BDRip-AVC 720p | P

42 | 15

20.51 ГБ

В этой теме нет новых непрочитанных сообщений. Друзья / Friends [9 сезон] (2002-2003) BDRip-AVC от HQCLUB

208 | 75

11.38 ГБ

В этой теме нет новых непрочитанных сообщений. Друзья / Friends [S04] (1997-1998) BDRip-AVC | iPad

5 | 2

14.06 ГБ

В этой теме нет новых непрочитанных сообщений. Друзья / Friends [S07] (2000-2001) BDRip-AVC | iPad

6 | 17

12.7 ГБ

В этой теме нет новых непрочитанных сообщений. Друзья / Friends [S02] (1995-1996) BDRip-AVC | iPad

16 | 5

14.87 ГБ




Вы не можете начинать темы
Вы не можете отвечать на сообщения
Вы не можете редактировать свои сообщения
Вы не можете удалять свои сообщения
Вы не можете добавлять вложения

Перейти:  
Для Мосгорсуда, Роскомнадзора и рекламодателей: mosgorsud-torrent[собачка]yandex.ru
 Вход
ppkBB3cker v.2 © 2008-2014 @ PPK
[ Time : 0.035s | 16 Queries | GZIP : Off ]

Торрент трекер RUTOR.IN, Не можете зайти на rutor.org? Какой новый адрес рутор? Какое зеркало рутор? Не работает rutor.org и зеркала? Тогда наш торрент специально для вас. Rutor.in неофициальное зеркало rutor. В случае если у Вас заблокирован rutor или вдруг Вы не можете на него зайти, то Вы без труда сможете скачать бесплатно и без рекламы последние новинки кино, игр, сериалов и прочего у нас, на Rutor.in. Не нужно использовать прокси, чтобы зайти на рутор, достаточно воспользоваться нашим ресурсом. Все новые фильмы, игры, сериалы, книги и музыка за 2013 и 2014 годы через торрент бесплатно. Скачивайте фильмы в хорошем качестве, игры для пк, xbox, playstation без регистрации. У нас вы найдете новые Зарубежные сериалы и Русские сериалы 2013, 2014, 2015 годов. Оставайтесь с нами, качайте любимые фильмы, игры, сериалы, книги и музыку.