img image001 image001 image001 image001 image001 image001 image001 image001 image001 image001 image001 image001 image001 image001 image001

Planets Sun Sun Sun
Статистика раздачи
Автор: Nickolas3434 | Размер: 5.55 ГБ | Добавлен: 08 сен 2014
Раздают: 106    Качают: 43
Скачать торрент
Скачать торрент
Описание торрента

СообщениеДобавлено: 08 сен 2014 

«Мы верим в любовь»



Страна: Россия, Украина / РОССИЯ 1, ЛЕОПОЛИС, КВАРТАЛ95
Жанр: комедия, мелодрама, фэнтези
Год выпуска: 2014
Продолжительность: 00:43:50 / серия
Перевод: Не требуется
Cубтитры: нет
Оригинальная аудиодорожка: русский
Режиссер: Марюс Вайсберг, Дэвид Додсон
В ролях: Вера Брежнева, Алексей Чадов, Светлана Ходченкова, Владимир Зеленский, Настя Задорожная, Вилле Хаапасало, Филипп Киркоров, Екатерина Климова, Шэрон Стоун, Игорь Жижикин...
Описание: В жизни каждого отца, рано или поздно наступает момент, когда жена улетает на заслуженный отдых, а он остается один на один с собственным ребенком. Казалось бы — ничего сложного! Также подумали Игорь, Артем и Сауна, даже не подозревая, какой «водопад» приключений накроет их с головой. Измученные «прелестями» отцовства, парни встречают своего старого приятеля Святого Валентина. Снимая стресс за бутылочкой виски, ребята в шутку мечтают о том, чтобы их дети поскорее стали взрослыми. А на утро, шокированные папаши понимают — их мечта сбылась и теперь они на собственной шкуре поймут, что значит поговорка: «Большие дети — большие проблемы…»


Качество: DVDRip / 2 x DVD9 R5 - лицензионные диски от "CD Land"
Формат: AVI
Видео: 720x400 (16:9), 25.000 fps, XviD ~ 1800 kbps avg, 0.250 bit/pixel
Аудио: 48 kHz, Dolby AC3, 6 ch, 448 kbps, русский
Раздача от:
Общее
Полное имя : Lyubov.v.bolshom.gorode.3.2014.O.DVDRip_[New-Team]_by_avproh1.avi
Формат : AVI
Формат/Информация : Audio Video Interleave
Размер файла : 710 Мбайт
Продолжительность : 43 м.
Общий поток : 2256 Кбит/сек
Программа кодирования : VirtualDubMod 1.5.10.3 | www.virtualdub-fr.org || (build 2550/release)
Библиотека кодирования : VirtualDubMod build 2550/release
Видео
Идентификатор : 0
Формат : MPEG-4 Visual
Профиль формата : Advanced Simple@L5
Параметр BVOP формата : 1
Параметр QPel формата : Нет
Параметр GMC формата : Без точки перехода
Параметр матрицы формата : Выборочная
Идентификатор кодека : XVID
Идентификатор кодека/Подсказка : XviD
Продолжительность : 43 м.
Битрейт : 1799 Кбит/сек
Ширина : 720 пикселей
Высота : 400 пикселей
Соотношение сторон : 16:9
Частота кадров : 25,000 кадров/сек
Цветовое пространство : YUV
Субдискретизация насыщенности : 4:2:0
Битовая глубина : 8 бит
Тип развёртки : Прогрессивная
Метод сжатия : С потерями
Бит/(Пиксели*Кадры) : 0.250
Размер потока : 566 Мбайт (80%)
Библиотека кодирования : XviD 1.2.1 (UTC 2008-12-04)
Аудио
Идентификатор : 1
Формат : AC-3
Формат/Информация : Audio Coding 3
Расширение режима : CM (complete main)
Параметр Endianness формата : Big
Идентификатор кодека : 2000
Продолжительность : 43 м.
Вид битрейта : Постоянный
Битрейт : 448 Кбит/сек
Каналы : 6 каналов
Расположение каналов : Front: L C R, Side: L R, LFE
Частота : 48,0 КГц
Битовая глубина : 16 бит
Метод сжатия : С потерями
Размер потока : 141 Мбайт (20%)
Выравнивание : Разделение по промежуткам
Продолжительность промежутка : 40 мс. (1,00 видеокадр)
Время предзагрузки промежутка : 500 мс.



HDTVRip -> DVDRip:
Видео: http://screenshotcomparison.com/comparison/90635/ - взято подряд по 4 кадра, у конкурента при кодировании не верно подобран деинтерлейс. Таких кадров во всех сериях очень много.
Аудио: http://screenshotcomparison.com/comparison/90636 - + у меня 6 каналов, а у конкурента 2.
WEB-DLRip -> DVDRip
Видео: http://screenshotcomparison.com/comparison/90637 - у меня картинка несколько полнее и светлее.
Аудио: http://screenshotcomparison.com/comparison/90639 - аналогично предыдущему сравнению звуков



   Похожие торренты   Торрент   Размер 
В этой теме нет новых непрочитанных сообщений. Любовь в большом городе 3 [01-08 из 8] (2014) DVDRip-AVC от New-Team | Расширенная ТВ-версия | лицензия

63 | 34

5.55 ГБ

В этой теме нет новых непрочитанных сообщений. Любовь в большом городе 3 [01-06 из 08] (2014) WEB-DLRip от MediaClub | Расширенная ТВ-версия

14 | 8

3.81 ГБ

В этой теме нет новых непрочитанных сообщений. Любовь в большом городе 3 [01-08 из 08] (2014) WEB-DLRip (AVC) от Generalfilm | Расширенная ТВ-версия

65 | 50

4.38 ГБ

В этой теме нет новых непрочитанных сообщений. Любовь в большом городе 3 [01-08 из 08] (2014) HDTVRip от MediaClub | Расширенная ТВ-версия

169 | 34

5.12 ГБ

В этой теме нет новых непрочитанных сообщений. Любовь в большом городе 3 [01-08 из 08] (2014) WEB-DL (720p) от Generalfilm | Расширенная ТВ-версия

40 | 104

6.6 ГБ

В этой теме нет новых непрочитанных сообщений. Любовь в большом городе 3 [01-04 из 08] (2014) WEB-DLRip от MediaClub | Расширенная ТВ-версия

10 | 25

2.54 ГБ

В этой теме нет новых непрочитанных сообщений. Любовь в большом городе 3 [01-06 из 08] (2014) WEB-DL (720p) от Generalfilm | Расширенная ТВ-версия

16 | 18

4.93 ГБ




Вы не можете начинать темы
Вы не можете отвечать на сообщения
Вы не можете редактировать свои сообщения
Вы не можете удалять свои сообщения
Вы не можете добавлять вложения

Перейти:  
Для Мосгорсуда, Роскомнадзора и рекламодателей: mosgorsud-torrent[собачка]yandex.ru
 Вход
ppkBB3cker v.2 © 2008-2014 @ PPK
[ Time : 0.066s | 16 Queries | GZIP : Off ]

Торрент трекер RUTOR.IN, Не можете зайти на rutor.org? Какой новый адрес рутор? Какое зеркало рутор? Не работает rutor.org и зеркала? Тогда наш торрент специально для вас. Rutor.in неофициальное зеркало rutor. В случае если у Вас заблокирован rutor или вдруг Вы не можете на него зайти, то Вы без труда сможете скачать бесплатно и без рекламы последние новинки кино, игр, сериалов и прочего у нас, на Rutor.in. Не нужно использовать прокси, чтобы зайти на рутор, достаточно воспользоваться нашим ресурсом. Все новые фильмы, игры, сериалы, книги и музыка за 2013 и 2014 годы через торрент бесплатно. Скачивайте фильмы в хорошем качестве, игры для пк, xbox, playstation без регистрации. У нас вы найдете новые Зарубежные сериалы и Русские сериалы 2013, 2014, 2015 годов. Оставайтесь с нами, качайте любимые фильмы, игры, сериалы, книги и музыку.