img image001 image001 image001 image001 image001 image001 image001 image001 image001 image001 image001 image001 image001 image001 image001 image001

Planets Sun Sun Sun
Статистика раздачи
Автор: Nickolas3434 | Размер: 9.94 ГБ | Добавлен: 07 сен 2014
Раздают: 146    Качают: 66
Скачать торрент
Скачать торрент
Описание торрента

СообщениеДобавлено: 07 сен 2014 

Информация о фильме
Название: Ходячие мертвецы
Оригинальное название: The Walking Dead
Год выхода: 2010
Жанр: Ужасы, триллер, драма
Режиссер: Эрнест Р. Дикерсон, Гай Ферленд, Гвинет Хордер-Пэйтон
В ролях: Эндрю Линкольн, Джон Бернтал, Сара Уэйн Кэллис, Лори Холден, Джеффри ДеМанн, Стивен Юн, Чендлер Риггз, Норман Ридус, Айрон Э. Синглтон, Мелисса Сюзанн МакБрайд
О фильме:
Сериал рассказывает историю жизни семьи шерифа после того, как «зомби» — эпидемия апокалипсических масштабов захлестнула земной шар. Шериф Рик Грайм путешествует со своей семьей и небольшой группой выживших в поисках безопасного места для жизни. Но постоянный страх смерти каждый день приносит тяжелые потери, заставляя героев почувствовать глубины человеческой жестокости. Рик пытается спасти свою семью, и открывает для себя, что всепоглощающий страх тех, кто выжил, может быть опаснее бессмысленных мертвецов, бродящих по земле.

Сезон 1
01. Дни, Ушедшие Навсегда / Days Gone Bye
02. Кишки / Guts
03. Скажи Это Лягушкам / Tell It to the Frogs
04. Братаны / Vatos
05. Лесной пожар / Wildfire
06. ТС-19 / TS-19
Сезон 2
01. Что ждет впереди / What Lies Ahead
02. Кровопускание / Bloodletting
03. Прибереги последний / Save the Last One
04. Роза Чероки / Cherokee Rose
05. Чупакабра / Chupacabra
06. Тайны / Secrets
07. Почти мертв / Pretty Much Dead Already
08. Небраска / Nebraska
09. Палец на курке / Triggerfinger
10. Еще 18 миль / 18 Miles Out
11. Судья, присяжный и палач / Judge, Jury, Executioner
12. Новые ангелы / Better Angels
13. Около умирающего огня / Beside the Dying Fire
Сезон 3
01. Семена / Seed
02. Больной / Sick
03. Пройдемся / Walk with Me
04. Убийца внутри / Killer Within
05. Только скажи / Say the Word
06. Затравленные / Hounded
07. Когда мертвые стучатся / When the Dead Come Knocking
08. Перемотка / Rewind
09. Король самоубийства / The Suicide King
10. Дом / Home
11. Я не Иуда / I Ain't a Judas
12. Очищенный / Clear
13. Стрела на дверном косяке / Arrow on the Doorpost
14. Добыча / Prey
15. Эта горестная жизнь / This Sorrowful Life
16. Добро пожаловать в могилы / «Welcome to the Tombs
Сезон 4
01. 30 дней без происшествий / 30 Days Without an Accident
02. Инфекция / Infected
03. Изоляция / Isolation
04. Безразличие / Indifference
05. Погребение / Internment
06. Живая приманка / Live Bait
07. Мёртвый груз / Dead Weight
08. Зайдя слишком далеко / Too Far Gone
09. После / After
10. Беглецы / Inmates
11. Присвоенное / Claimed
12. Тупик / Still
13. Одиночество / Alone
14. Роща / The Grove
15. Мы / Us
16. А

Страна: США
Студия: AMC Studios, American Movie Classics (AMC), Circle of Confusion, Darkwoods Productions, Valhalla Motion Pictures
Продолжительность: 1 x ~01:07:00, 50 x ~00:43:00
Перевод: Профессиональный (многоголосый, закадровый) [LostFilm]
Файл
Формат: MP4
Качество: WEB-DLRip | КПК
Видео: MPEG-4 AVC (x264), 640x360, ~500 kbps, 23.976 fps
Аудио: AAC LC, 48.0 KHz, 2 ch, 128 Kbps
Субтитры: Нет
Семпл

Complete name : E:KinoHodjachie.Mertvecy.AVC.WEB-DLRip.KPK.LF.GeneralfilmHodjachie.Mertvecy.S04.2013-2014.AVC.WEB-DLRip.KPK.LF.GeneralfilmHodjachie.Mertvecy.s04e05.2013.AVC.WEB-DLRip.KPK.LF.Generalfilm.mp4
Format : MPEG-4
Format profile : Base Media
Codec ID : isom
File size : 195 MiB
Duration : 43mn 13s
Overall bit rate mode : Variable
Overall bit rate : 631 Kbps
Encoded date : UTC 2014-08-05 13:05:19
Tagged date : UTC 2014-08-05 13:05:19
Video
ID : 1
Format : AVC
Format/Info : Advanced Video Codec
Format profile : Baseline@L4.1
Format settings, CABAC : No
Format settings, ReFrames : 6 frames
Codec ID : avc1
Codec ID/Info : Advanced Video Coding
Duration : 43mn 12s
Bit rate : 500 Kbps
Maximum bit rate : 4 027 Kbps
Width : 640 pixels
Height : 360 pixels
Display aspect ratio : 16:9
Frame rate mode : Constant
Frame rate : 23.976 fps
Color space : YUV
Chroma subsampling : 4:2:0
Bit depth : 8 bits
Scan type : Progressive
Bits/(Pixel*Frame) : 0.091
Stream size : 155 MiB (79%)
Writing library : x264 core 125 r2200 999b753
Encoding settings : cabac=0 / ref=6 / deblock=1:-1:-1 / analyse=0x1:0x111 / me=umh / subme=7 / psy=1 / psy_rd=1.00:0.00 / mixed_ref=0 / me_range=16 / chroma_me=1 / trellis=1 / 8x8dct=0 / cqm=0 / deadzone=21,11 / fast_pskip=0 / chroma_qp_offset=-2 / threads=12 / lookahead_threads=2 / sliced_threads=0 / nr=0 / decimate=1 / interlaced=0 / bluray_compat=0 / constrained_intra=0 / bframes=0 / weightp=0 / keyint=250 / keyint_min=23 / scenecut=40 / intra_refresh=0 / rc_lookahead=60 / rc=2pass / mbtree=1 / bitrate=500 / ratetol=1.0 / qcomp=0.60 / qpmin=0 / qpmax=69 / qpstep=4 / cplxblur=20.0 / qblur=0.5 / ip_ratio=1.40 / aq=1:1.00
Encoded date : UTC 2014-08-05 13:05:19
Tagged date : UTC 2014-08-05 13:05:23
Audio
ID : 2
Format : AAC
Format/Info : Advanced Audio Codec
Format profile : LC
Codec ID : 40
Duration : 43mn 13s
Bit rate mode : Variable
Bit rate : 128 Kbps
Maximum bit rate : 189 Kbps
Channel count : 2 channels
Channel positions : Front: L R
Sampling rate : 48.0 KHz
Compression mode : Lossy
Stream size : 39.6 MiB (20%)
Encoded date : UTC 2014-08-05 13:05:22
Tagged date : UTC 2014-08-05 13:05:23

Релиз от:



   Похожие торренты   Торрент   Размер 
В этой теме нет новых непрочитанных сообщений. Ходячие мертвецы / The Walking Dead [S01-07] (2010-2017) WEB-DLRip от Generalfilm | КПК | LostFilm

144 | 123

19.96 ГБ

В этой теме нет новых непрочитанных сообщений. Ходячие мертвецы / The Walking Dead [S01-05] (2010-2015) WEB-DLRip от Generalfilm | КПК | LostFilm

206 | 185

13.08 ГБ

В этой теме нет новых непрочитанных сообщений. Ходячие мертвецы / The Walking Dead [S01-06] (2010-2016) WEB-DLRip от Generalfilm | КПК | LostFilm

133 | 158

16.42 ГБ

В этой теме нет новых непрочитанных сообщений. Ходячие мертвецы / The Walking Dead [01-06x01-75 из 83] (2010-2016) WEB-DLRip от Generalfilm | КПК | LostFilm

230 | 330

14.81 ГБ

В этой теме нет новых непрочитанных сообщений. Ходячие мертвецы / The Walking Dead [S01-04] (2010-2014) WEB-DLRip | LostFilm

152 | 249

29.62 ГБ

В этой теме нет новых непрочитанных сообщений. Ходячие мертвецы / The Walking Dead [01,03-04x01-32 из 39] ( 2010-2014) WEB-DLRip,ВDRip-AVC 1080p | Fox Crime,LostFilm

5 | 13

51.95 ГБ

В этой теме нет новых непрочитанных сообщений. Ходячие мертвецы / The Walking Dead [S01-S04] ( 2010-2014) WEB-DLRip, HDTVRip, ВDRip-AVC 1080p | Fox Crime, LostFilm

43 | 110

96.23 ГБ




Вы не можете начинать темы
Вы не можете отвечать на сообщения
Вы не можете редактировать свои сообщения
Вы не можете удалять свои сообщения
Вы не можете добавлять вложения

Перейти:  
 Вход
ppkBB3cker v.2 © 2008-2014 @ PPK
[ Time : 0.031s | 17 Queries | GZIP : Off ]

cron