img image001 image001 image001 image001 image001 image001 image001 image001 image001 image001 image001 image001 image001 image001 image001

Planets Sun Sun Sun
Статистика раздачи
Автор: Nickolas3434 | Размер: 5.55 ГБ | Добавлен: 07 сен 2014
Раздают: 66    Качают: 35
Скачать торрент
Скачать торрент
Описание торрента

СообщениеДобавлено: 07 сен 2014 

«Мы верим в любовь»



Страна: Россия, Украина / РОССИЯ 1, ЛЕОПОЛИС, КВАРТАЛ95
Жанр: комедия, мелодрама, фэнтези
Год выпуска: 2014
Продолжительность: 00:43:50 / серия
Перевод: Не требуется
Cубтитры: нет
Оригинальная аудиодорожка: русский
Режиссер: Марюс Вайсберг, Дэвид Додсон
В ролях: Вера Брежнева, Алексей Чадов, Светлана Ходченкова, Владимир Зеленский, Настя Задорожная, Вилле Хаапасало, Филипп Киркоров, Екатерина Климова, Шэрон Стоун, Игорь Жижикин...
Описание: В жизни каждого отца, рано или поздно наступает момент, когда жена улетает на заслуженный отдых, а он остается один на один с собственным ребенком. Казалось бы — ничего сложного! Также подумали Игорь, Артем и Сауна, даже не подозревая, какой «водопад» приключений накроет их с головой. Измученные «прелестями» отцовства, парни встречают своего старого приятеля Святого Валентина. Снимая стресс за бутылочкой виски, ребята в шутку мечтают о том, чтобы их дети поскорее стали взрослыми. А на утро, шокированные папаши понимают — их мечта сбылась и теперь они на собственной шкуре поймут, что значит поговорка: «Большие дети — большие проблемы…»


Качество: DVDRip-AVC / 2 x DVD9 R5 - лицензионные диски от "CD Land"
Формат: MKV
Видео: 720x576@1024x576 (16:9), 25.000 fps, MPEG-4 AVC ~ 1809 kbps avg, 0.174 bit/pixel
Аудио: 48 kHz, Dolby AC3, 6 ch, 448 kbps, русский
Раздача от:
Общее
Полное имя : Lyubov.v.bolshom.gorode.3.2014.O.DVDRip-AVC_[New-Team]_by_avproh1.mkv
Формат : Matroska
Версия формата : Version 2
Размер файла : 710 Мбайт
Продолжительность : 43 м.
Общий поток : 2258 Кбит/сек
Дата кодирования : UTC 2014-09-07 01:11:38
Программа кодирования : mkvmerge v6.1.0 ('Old Devil') built on Mar 4 2013 09:10:42
Библиотека кодирования : libebml v1.3.0 + libmatroska v1.4.0
Видео
Идентификатор : 1
Формат : AVC
Формат/Информация : Advanced Video Codec
Профиль формата : High@L4.1
Параметр CABAC формата : Да
Параметр ReFrames формата : 8 кадров
Идентификатор кодека : V_MPEG4/ISO/AVC
Продолжительность : 43 м.
Битрейт : 1809 Кбит/сек
Ширина : 720 пикселей
Высота : 576 пикселей
Соотношение сторон : 16:9
Режим частоты кадров : Постоянный
Частота кадров : 25,000 кадров/сек
Стандарт вещания : PAL
Цветовое пространство : YUV
Субдискретизация насыщенности : 4:2:0
Битовая глубина : 8 бит
Тип развёртки : Прогрессивная
Бит/(Пиксели*Кадры) : 0.174
Размер потока : 555 Мбайт (78%)
Библиотека кодирования : x264 core 138 r2356 a1d3d17
Настройки программы : cabac=1 / ref=8 / deblock=1:-2:-1 / analyse=0x3:0x113 / me=umh / subme=10 / psy=1 / psy_rd=1.00:0.05 / mixed_ref=1 / me_range=32 / chroma_me=1 / trellis=2 / 8x8dct=1 / cqm=0 / deadzone=21,11 / fast_pskip=0 / chroma_qp_offset=-3 / threads=6 / lookahead_threads=1 / sliced_threads=0 / nr=0 / decimate=0 / interlaced=0 / bluray_compat=0 / constrained_intra=0 / bframes=8 / b_pyramid=2 / b_adapt=2 / b_bias=0 / direct=3 / weightb=1 / open_gop=0 / weightp=2 / keyint=250 / keyint_min=25 / scenecut=40 / intra_refresh=0 / rc=2pass / mbtree=0 / bitrate=1809 / ratetol=1.0 / qcomp=0.60 / qpmin=0 / qpmax=69 / qpstep=4 / cplxblur=20.0 / qblur=0.5 / ip_ratio=1.40 / pb_ratio=1.30 / aq=1:1.00
Default : Да
Forced : Нет
Аудио
Идентификатор : 2
Формат : AC-3
Формат/Информация : Audio Coding 3
Расширение режима : CM (complete main)
Параметр Endianness формата : Big
Идентификатор кодека : A_AC3
Продолжительность : 43 м.
Вид битрейта : Постоянный
Битрейт : 448 Кбит/сек
Каналы : 6 каналов
Расположение каналов : Front: L C R, Side: L R, LFE
Частота : 48,0 КГц
Битовая глубина : 16 бит
Метод сжатия : С потерями
Размер потока : 141 Мбайт (20%)
Default : Да
Forced : Нет



WEB-DLRip (AVC) -> DVDRip-AVC: /torrent/341095/
Видео: http://screenshotcomparison.com/comparison/90675 - у меня картинка несколько полнее и четче.
Аудио: http://screenshotcomparison.com/comparison/90676 - у конкурента звук убитый и 2 канала, у меня 5.1.



   Похожие торренты   Торрент   Размер 
В этой теме нет новых непрочитанных сообщений. Любовь в большом городе 3 [01-08 из 8] (2014) DVDRip от New-Team | Расширенная ТВ-версия | лицензия

110 | 43

5.55 ГБ

В этой теме нет новых непрочитанных сообщений. Любовь в большом городе 3 [01-04 из 08] (2014) WEB-DL (720p) от Generalfilm | Расширенная ТВ-версия

28 | 16

3.28 ГБ

В этой теме нет новых непрочитанных сообщений. Любовь в большом городе 3 [01-06 из 08] (2014) WEB-DLRip от MediaClub | Расширенная ТВ-версия

14 | 8

3.81 ГБ

В этой теме нет новых непрочитанных сообщений. Любовь в большом городе 3 [01-08 из 08] (2014) WEB-DLRip (AVC) от Generalfilm | Расширенная ТВ-версия

65 | 50

4.38 ГБ

В этой теме нет новых непрочитанных сообщений. Любовь в большом городе 3 [01-08 из 08] (2014) HDTVRip от MediaClub | Расширенная ТВ-версия

169 | 34

5.12 ГБ

В этой теме нет новых непрочитанных сообщений. Любовь в большом городе 3 [01-06 из 08] (2014) WEB-DL (720p) от Generalfilm | Расширенная ТВ-версия

16 | 18

4.93 ГБ

В этой теме нет новых непрочитанных сообщений. Любовь в большом городе 3 [01-08 из 08] (2014) WEB-DL (720p) от Generalfilm | Расширенная ТВ-версия

40 | 104

6.6 ГБ




Вы не можете начинать темы
Вы не можете отвечать на сообщения
Вы не можете редактировать свои сообщения
Вы не можете удалять свои сообщения
Вы не можете добавлять вложения

Перейти:  
Для Мосгорсуда, Роскомнадзора и рекламодателей: mosgorsud-torrent[собачка]yandex.ru
 Вход
ppkBB3cker v.2 © 2008-2014 @ PPK
[ Time : 0.056s | 17 Queries | GZIP : Off ]

cron