img image001 image001 image001 image001 image001 image001 image001 image001 image001 image001 image001 image001 image001 image001 image001

Planets Sun Sun Sun
Статистика раздачи
Автор: Nickolas3434 | Размер: 22.55 ГБ | Добавлен: 09 сен 2014
Раздают: 54    Качают: 36
Скачать торрент
Скачать торрент
Описание торрента

СообщениеДобавлено: 09 сен 2014 


Информация о фильме
Название: Океан
Оригинальное название: Ocean / Oceano
Год выхода: 1989
Жанр: Драма, экранизация
Режиссер: Руджеро Деодато
В ролях: Ирен Папас, Марио Адорф, Томас Патти, Грегг Томсен, Уильям Бёргер, Лу Кастель, Анна Канакис, Клаудия Муци, Энди Дж. Форрест, Дэвид Хесс, Ана Дигуэс, Адам Аркин, Ром Макконе, Альдо Санбрелл, Майкл Берриман, Антонио Флорес, Венантино Венантини
О фильме: Главная героиня этого сериала — красивая девушка по имени Айза — обладает удивительным даром. Она может лечить людей и разговаривать с животными. Возвращаясь вечером домой, Айза подвергается нападению сына самого богатого человека на острове — дона Матиаса. Брат Айзы Аструбал, защищая сестру, случайно убивает насильника. Дон Матиас нанимает Дамиана, чтобы отомстить семье Педомо. С этого момента начинаются трудные испытания для Айзы и её семьи.

Страна: Италия, Испания, Венесуэла
Студия: Franco Cristaldi, Cinecita Cristaldi Film s.p.a., San Francisco Film, Socaem, Vamos Al Cine S.E.
Продолжительность: 6 x ~ 01:30:00
Перевод: Профессиональный двухголосый
Субтитры: Русские, испанские
Файл
Кодек: MPEG-2
Качество: DVD-9
Видео: MPEG2, PAL, 4:3 (720x576) VBR, 25 кадр/с
Аудио #1: Русский, Dolby AC3, 48000 Гц, 192 Кбит/с, 2 канала (Стерео)
Аудио #2: Английский, Dolby AC3, 48000 Гц, 192 Кбит/с, 2 канала (Стерео)
Title: DATA
Size: 7.53 Gb ( 7 891 666 KBytes ) - DVD-9
Enabled regions: 1, 2, 3, 4, 5, 6, 7, 8
VTS_01 :
Play Length: 01:28:48+01:31:21
Video: PAL 4:3 (720x576) VBR
Audio:
Russian (Dolby AC3, 2 ch)
English (Dolby AC3, 2 ch)
Subtitles:
Espanol
Russian
Menu Video:
NTSC 4:3 (720x480) VBR
Auto Pan&Scan, Auto Letterboxed
Menu Espanol Language Unit :
Root Menu
Общее
Полное имя : D:залитьОКЕАНДИСК 1VIDEO_TSVTS_01_1.VOB
Формат : MPEG-PS
Размер файла : 1024 Мбайт
Продолжительность : 24 м.
Режим общего битрейта : Переменный
Общий поток : 5937 Кбит/сек
Видео
Идентификатор : 224 (0xE0)
Формат : MPEG Video
Версия формата : Version 2
Профиль формата : Main@Main
Параметр BVOP формата : Да
Параметр матрицы формата : По умолчанию
Параметр GOP формата : M=3, N=12
Продолжительность : 24 м.
Вид битрейта : Переменный
Битрейт : 5403 Кбит/сек
Максимальный битрейт : 7500 Кбит/сек
Ширина : 720 пикселей
Высота : 576 пикселей
Соотношение сторон : 4:3
Частота кадров : 25,000 кадров/сек
Стандарт вещания : PAL
Цветовое пространство : YUV
Субдискретизация насыщенности : 4:2:0
Битовая глубина : 8 бит
Тип развёртки : Чересстрочная
Порядок развёртки : Верхнее поле первое
Метод сжатия : С потерями
Бит/(Пиксели*Кадры) : 0.521
TimeCode_FirstFrame : 00:00:00:00
TimeCode_Source : Group of pictures header
Размер потока : 932 Мбайт (91%)
Аудио #1
Идентификатор : 189 (0xBD)-128 (0x80)
Формат : AC-3
Формат/Информация : Audio Coding 3
Расширение режима : CM (complete main)
Параметр Endianness формата : Big
Режим смешивания : DVD-Video
Продолжительность : 24 м.
Вид битрейта : Постоянный
Битрейт : 192 Кбит/сек
Каналы : 2 канала
Расположение каналов : Front: L R
Частота : 48,0 КГц
Битовая глубина : 16 бит
Метод сжатия : С потерями
Задержка видео : -80 мс.
Размер потока : 33,1 Мбайт (3%)
Аудио #2
Идентификатор : 189 (0xBD)-129 (0x81)
Формат : AC-3
Формат/Информация : Audio Coding 3
Расширение режима : CM (complete main)
Параметр Endianness формата : Big
Режим смешивания : DVD-Video
Продолжительность : 24 м.
Вид битрейта : Постоянный
Битрейт : 224 Кбит/сек
Каналы : 2 канала
Расположение каналов : Front: L R
Частота : 48,0 КГц
Битовая глубина : 16 бит
Метод сжатия : С потерями
Задержка видео : -80 мс.
Размер потока : 38,6 Мбайт (4%)
Меню



   Похожие торренты   Торрент   Размер 
В этой теме нет новых непрочитанных сообщений. Океан / Oceano [01x01-12] (1989) TVRip

283 | 62

5.23 ГБ

В этой теме нет новых непрочитанных сообщений. Океан-рай / Рай океана / Haiyang tiantang / Ocean Heaven / Ocean Paradise (2010) DVDRip

14 | 367

785.67 МБ

В этой теме нет новых непрочитанных сообщений. Океан-рай / Рай океана / Haiyang tiantang / Ocean Heaven / Ocean Paradise (2010) HDRip | L1

0 | 2

1.46 ГБ

В этой теме нет новых непрочитанных сообщений. Океан-рай / Рай океана / Haiyang tiantang / Ocean Heaven / Ocean Paradise (2010) DVD5

1 | 2

4.26 ГБ

В этой теме нет новых непрочитанных сообщений. Океан-рай / Рай океана / Haiyang tiantang / Ocean Heaven / Ocean Paradise (2010) DVDRip

3 | 2

1.41 ГБ

В этой теме нет новых непрочитанных сообщений. Планета-океан / Planet Ocean (2012) HDRip | P1

246 | 3

1.46 ГБ

В этой теме нет новых непрочитанных сообщений. Звёздный океан Экс ТВ / Star Ocean Ex TV (2001) DVDRip

1 | 2

6.9 ГБ




Вы не можете начинать темы
Вы не можете отвечать на сообщения
Вы не можете редактировать свои сообщения
Вы не можете удалять свои сообщения
Вы не можете добавлять вложения

Перейти:  
Для Мосгорсуда, Роскомнадзора и рекламодателей: mosgorsud-torrent[собачка]yandex.ru
 Вход
ppkBB3cker v.2 © 2008-2014 @ PPK
[ Time : 4.787s | 14 Queries | GZIP : Off ]

Торрент трекер RUTOR.IN, Не можете зайти на rutor.org? Какой новый адрес рутор? Какое зеркало рутор? Не работает rutor.org и зеркала? Тогда наш торрент специально для вас. Rutor.in неофициальное зеркало rutor. В случае если у Вас заблокирован rutor или вдруг Вы не можете на него зайти, то Вы без труда сможете скачать бесплатно и без рекламы последние новинки кино, игр, сериалов и прочего у нас, на Rutor.in. Не нужно использовать прокси, чтобы зайти на рутор, достаточно воспользоваться нашим ресурсом. Все новые фильмы, игры, сериалы, книги и музыка за 2013 и 2014 годы через торрент бесплатно. Скачивайте фильмы в хорошем качестве, игры для пк, xbox, playstation без регистрации. У нас вы найдете новые Зарубежные сериалы и Русские сериалы 2013, 2014, 2015 годов. Оставайтесь с нами, качайте любимые фильмы, игры, сериалы, книги и музыку.