img image001 image001 image001 image001 image001 image001 image001 image001 image001 image001 image001 image001 image001 image001 image001

Planets Sun Sun Sun
Статистика раздачи
Автор: Nickolas3434 | Размер: 7.22 ГБ | Добавлен: 21 сен 2014
Раздают: 573    Качают: 275
Скачать торрент
Скачать торрент
Описание торрента

СообщениеДобавлено: 21 сен 2014 


Страна: Россия, Украина / Star Media

Жанр: драма, криминал
Год выпуска: 2013
Продолжительность: 00:51:00 / серия

Перевод: Не требуется
Cубтитры: нет
Оригинальная аудиодорожка: русский

Режиссер: Эдуард Парри

В ролях: Антон Феоктистов, Ольга Лерман, Сергей Сосновский, Алексей Горбунов, Юлия Галкина, Александр Робак, Наталья Ковалева, Автандил Бежиашвили, Вадим Цаллати, Александр Савенков...

Описание: Дело происходит в Одессе в 1980 год. У Костика Волошина большие планы, он хочет удрать за кордон. У него двойная жизнь – должность научного сотрудника НИИ лишь прикрытие для шулерской деятельности, в которой Костик абсолютный профи. Спасаясь от карточника Гоги, которому он задолжал большую сумму денег, Костик едет в Одессу, откуда сам родом. Ему нужно заработать денег чтобы уехать из страны. Все аферы наш герой проворачивает под прикрытием Балабана, который крышует всю Одессу. Однако лучший друг и покровитель Балабан становится врагом номер один, когда Костик узнает, что именно он причастен к гибели его отца. А теперь Балабан еще и намерен выжить Костика из города, ведь у них на пути встала одна девушка по имени Майя. Костик решает заставить Балабана заплатить за смерть своего отца.




Качество: DVDRip-AVC / 2 x DVD9 R5 - лицензионные диски от компании "Мистерия звука"
Формат: MKV

Видео: 720x576x1024x576 (16:9), 25.000 fps, MPEG-4 AVC ~ 1800 kbps avg, 0.174 bit/pixel
Аудио: 48 kHz, Dolby AC3, 2 ch, 192 kbps, русский

Раздача от:

Общее
Полное имя : Shuler.2013.O.DVDRip-AVC_[New-Team]_by_avproh10.mkv
Формат : Matroska
Версия формата : Version 4 / Version 2
Размер файла : 764 Мбайт
Продолжительность : 53 м.
Общий поток : 2003 Кбит/сек
Дата кодирования : UTC 2014-09-20 06:19:28
Программа кодирования : mkvmerge v7.2.0 ('On Every Street') 64bit built on Sep 13 2014 15:52:10
Библиотека кодирования : libebml v1.3.0 + libmatroska v1.4.1
DURATION : 00:53:20.384000000
NUMBER_OF_FRAMES : 100012
NUMBER_OF_BYTES : 76809216
_STATISTICS_WRITING_APP : mkvmerge v7.2.0 ('On Every Street') 64bit built on Sep 13 2014 15:52:10
_STATISTICS_WRITING_DATE_UTC : 2014-09-20 06:19:28
_STATISTICS_TAGS : BPS DURATION NUMBER_OF_FRAMES NUMBER_OF_BYTES

Видео
Идентификатор : 1
Формат : AVC
Формат/Информация : Advanced Video Codec
Профиль формата : High@L4.1
Параметр CABAC формата : Да
Параметр ReFrames формата : 8 кадров
Идентификатор кодека : V_MPEG4/ISO/AVC
Продолжительность : 53 м.
Битрейт : 1809 Кбит/сек
Ширина : 720 пикселей
Высота : 576 пикселей
Соотношение сторон : 16:9
Режим частоты кадров : Постоянный
Частота кадров : 25,000 кадров/сек
Стандарт вещания : PAL
Цветовое пространство : YUV
Субдискретизация насыщенности : 4:2:0
Битовая глубина : 8 бит
Тип развёртки : Прогрессивная
Бит/(Пиксели*Кадры) : 0.174
Размер потока : 676 Мбайт (88%)
Библиотека кодирования : x264 core 138 r2356 a1d3d17
Настройки программы : cabac=1 / ref=8 / deblock=1:-2:-1 / analyse=0x3:0x113 / me=umh / subme=10 / psy=1 / psy_rd=1.00:0.05 / mixed_ref=1 / me_range=32 / chroma_me=1 / trellis=2 / 8x8dct=1 / cqm=0 / deadzone=21,11 / fast_pskip=0 / chroma_qp_offset=-3 / threads=6 / lookahead_threads=1 / sliced_threads=0 / nr=0 / decimate=0 / interlaced=0 / bluray_compat=0 / constrained_intra=0 / bframes=8 / b_pyramid=2 / b_adapt=2 / b_bias=0 / direct=3 / weightb=1 / open_gop=0 / weightp=2 / keyint=250 / keyint_min=25 / scenecut=40 / intra_refresh=0 / rc=2pass / mbtree=0 / bitrate=1809 / ratetol=1.0 / qcomp=0.60 / qpmin=0 / qpmax=69 / qpstep=4 / cplxblur=20.0 / qblur=0.5 / ip_ratio=1.40 / pb_ratio=1.30 / aq=1:1.00
Язык : Russian
Default : Да
Forced : Нет
DURATION : 00:53:20.400000000
NUMBER_OF_FRAMES : 80010
NUMBER_OF_BYTES : 723586762
_STATISTICS_WRITING_APP : mkvmerge v7.2.0 ('On Every Street') 64bit built on Sep 13 2014 15:52:10
_STATISTICS_WRITING_DATE_UTC : 2014-09-20 06:19:28
_STATISTICS_TAGS : BPS DURATION NUMBER_OF_FRAMES NUMBER_OF_BYTES

Аудио
Идентификатор : 2
Формат : AC-3
Формат/Информация : Audio Coding 3
Расширение режима : CM (complete main)
Параметр Endianness формата : Big
Идентификатор кодека : A_AC3
Продолжительность : 53 м.
Вид битрейта : Постоянный
Битрейт : 192 Кбит/сек
Каналы : 2 канала
Расположение каналов : Front: L R
Частота : 48,0 КГц
Битовая глубина : 16 бит
Метод сжатия : С потерями
Размер потока : 73,3 Мбайт (10%)
Язык : Russian
Default : Да
Forced : Нет





   Похожие торренты   Торрент   Размер 
В этой теме нет новых непрочитанных сообщений. Шулер / Одесса-мама [01-10 из 10] (2013) DVDRip от New-Team | лицензия

1503 | 262

7.22 ГБ

В этой теме нет новых непрочитанных сообщений. Шулер [01-10 из 10] (2013) 2xDVD9 от New-Team | Лицензия

69 | 47

15.13 ГБ

В этой теме нет новых непрочитанных сообщений. Шулер / Одесса-мама [01-10 из 10] (2013) WEB-DL 720p

129 | 28

7.17 ГБ

В этой теме нет новых непрочитанных сообщений. Шулер / Одесса-мама [01-10 из 10] (2013) WEB-DLRip

162 | 11

3.43 ГБ

В этой теме нет новых непрочитанных сообщений. Шулер / Одесса-мама [01-10 из 10] (2013) WEB-DL 1080p от РиперАМ

89 | 52

15.1 ГБ

В этой теме нет новых непрочитанных сообщений. Шулер / Одесса-мама [01-10 из 10] (2013) WEB-DLRip-AVC 1080p

23 | 27

19.85 ГБ

В этой теме нет новых непрочитанных сообщений. Шулер / Одесса-мама [01-10 из 10] (2013) WEB-DLRip от Generalfilm

6 | 4

7.22 ГБ




Вы не можете начинать темы
Вы не можете отвечать на сообщения
Вы не можете редактировать свои сообщения
Вы не можете удалять свои сообщения
Вы не можете добавлять вложения

Перейти:  
Для Мосгорсуда, Роскомнадзора и рекламодателей: mosgorsud-torrent[собачка]yandex.ru
 Вход
ppkBB3cker v.2 © 2008-2014 @ PPK
[ Time : 0.536s | 15 Queries | GZIP : Off ]

Торрент трекер RUTOR.IN, Не можете зайти на rutor.org? Какой новый адрес рутор? Какое зеркало рутор? Не работает rutor.org и зеркала? Тогда наш торрент специально для вас. Rutor.in неофициальное зеркало rutor. В случае если у Вас заблокирован rutor или вдруг Вы не можете на него зайти, то Вы без труда сможете скачать бесплатно и без рекламы последние новинки кино, игр, сериалов и прочего у нас, на Rutor.in. Не нужно использовать прокси, чтобы зайти на рутор, достаточно воспользоваться нашим ресурсом. Все новые фильмы, игры, сериалы, книги и музыка за 2013 и 2014 годы через торрент бесплатно. Скачивайте фильмы в хорошем качестве, игры для пк, xbox, playstation без регистрации. У нас вы найдете новые Зарубежные сериалы и Русские сериалы 2013, 2014, 2015 годов. Оставайтесь с нами, качайте любимые фильмы, игры, сериалы, книги и музыку.