img image001 image001 image001 image001 image001 image001 image001 image001 image001 image001 image001 image001 image001 image001 image001

Planets Sun Sun Sun
Статистика раздачи
Автор: Nickolas3434 | Размер: 7.25 ГБ | Добавлен: 21 сен 2014, 17:05
Раздают: 669    Качают: 273
Скачать торрент
Скачать торрент
Описание торрента

СообщениеДобавлено: 21 сен 2014, 17:05 


Страна: Россия / Щука

Жанр: детектив, криминал
Год выпуска: 2013
Продолжительность: 00:51:00 / серия

Перевод: Не требуется
Cубтитры: нет
Оригинальная аудиодорожка: русский

Режиссер: Олег Погодин

В ролях: Серафима Низовская, Андрей Мерзликин, Сергей Пускепалис, Мария Миронова, Анна Уколова, Николай Солодилов, Василий Бочкарев, Олег Алмазов, Андрей Феськов, Евгений Славский...

Описание: Действие фильма разворачивается в 1957 году. В центре сюжета — происходящие в маленьком городке загадочные преступления, расследованием которых занимаются милиционер Балахнин и сотрудник КГБ Митин.




Качество: DVDRip / 3 x DVD9 R5 - лицензионные диски от компании "CINEMA Prestige"
Формат: AVI

Видео: 720x400 (16:9), 25.000 fps, XviD ~ 1800 kbps avg, 0.250 bit/pixel
Аудио: 48 kHz, Dolby AC3, 2 ch, 192 kbps, русский

Раздача от:

Общее
Полное имя : Krik.sovy.2013.O.DVDRip_[New-Team]_by_avproh1.avi
Формат : AVI
Формат/Информация : Audio Video Interleave
Размер файла : 746 Мбайт
Продолжительность : 52 м.
Общий поток : 2001 Кбит/сек
Программа кодирования : VirtualDubModRus 1.5.10.2 (build 2542/release)
Библиотека кодирования : VirtualDubMod build 2542/release

Видео
Идентификатор : 0
Формат : MPEG-4 Visual
Профиль формата : Advanced Simple@L5
Параметр BVOP формата : 1
Параметр QPel формата : Нет
Параметр GMC формата : Без точки перехода
Параметр матрицы формата : Выборочная
Идентификатор кодека : XVID
Идентификатор кодека/Подсказка : XviD
Продолжительность : 52 м.
Битрейт : 1799 Кбит/сек
Ширина : 720 пикселей
Высота : 400 пикселей
Соотношение сторон : 16:9
Частота кадров : 25,000 кадров/сек
Цветовое пространство : YUV
Субдискретизация насыщенности : 4:2:0
Битовая глубина : 8 бит
Тип развёртки : Прогрессивная
Метод сжатия : С потерями
Бит/(Пиксели*Кадры) : 0.250
Размер потока : 671 Мбайт (90%)
Библиотека кодирования : XviD 1.2.1 (UTC 2008-12-04)

Аудио
Идентификатор : 1
Формат : AC-3
Формат/Информация : Audio Coding 3
Расширение режима : CM (complete main)
Параметр Endianness формата : Big
Идентификатор кодека : 2000
Продолжительность : 52 м.
Вид битрейта : Постоянный
Битрейт : 192 Кбит/сек
Каналы : 2 канала
Расположение каналов : Front: L R
Частота : 48,0 КГц
Битовая глубина : 16 бит
Метод сжатия : С потерями
Размер потока : 71,6 Мбайт (10%)
Выравнивание : Разделение по промежуткам
Продолжительность промежутка : 40 мс. (1,00 видеокадр)
Время предзагрузки промежутка : 500 мс.





   Похожие торренты   Торрент   Размер 
В этой теме нет новых непрочитанных сообщений. Крик совы [01-10 из 10] (2013) DVDRip-AVC от New-Team | лицензия

503 | 100

7.25 ГБ

В этой теме нет новых непрочитанных сообщений. Крик совы [01-10 из 10] (2013) 3xDVD9 от New-Team | Лицензия

80 | 55

19.67 ГБ

В этой теме нет новых непрочитанных сообщений. Крик Совы / Cry of the Owl (2009) BDRip 1080p от NOLIMITS-TEAM

0 | 4

4.28 ГБ

В этой теме нет новых непрочитанных сообщений. Крик совы [01-10 из 10] (2013) HDTVRip-AVC

549 | 110

5.92 ГБ

В этой теме нет новых непрочитанных сообщений. Крик Совы / Cry of the Owl (2009) DVDRip

2 | 1

1.37 ГБ

В этой теме нет новых непрочитанных сообщений. Крик Совы / The Cry of the Owl (2009) DVDRip

1 | 1

1.46 ГБ

В этой теме нет новых непрочитанных сообщений. Крик совы [01-10 из 10] (2013) HDTVRip от MediaClub

2838 | 677

7.47 ГБ




Вы не можете начинать темы
Вы не можете отвечать на сообщения
Вы не можете редактировать свои сообщения
Вы не можете удалять свои сообщения
Вы не можете добавлять вложения

Перейти:  
Для Мосгорсуда, Роскомнадзора и рекламодателей: mosgorsud-torrent[собачка]yandex.ru
Настройки
ppkBB3cker v.2 © 2008-2014 @ PPK
[ Time : 0.534s | 16 Queries | GZIP : On ]
CGP [Extreme] output time : 0.00017s | 0 Queries | GZIP : On

Торрент трекер RUTOR.IN, Не можете зайти на rutor.org? Какой новый адрес рутор? Какое зеркало рутор? Не работает rutor.org и зеркала? Тогда наш торрент специально для вас. Rutor.in неофициальное зеркало rutor. В случае если у Вас заблокирован rutor или вдруг Вы не можете на него зайти, то Вы без труда сможете скачать бесплатно и без рекламы последние новинки кино, игр, сериалов и прочего у нас, на Rutor.in. Не нужно использовать прокси, чтобы зайти на рутор, достаточно воспользоваться нашим ресурсом. Все новые фильмы, игры, сериалы, книги и музыка за 2013 и 2014 годы через торрент бесплатно. Скачивайте фильмы в хорошем качестве, игры для пк, xbox, playstation без регистрации. У нас вы найдете новые Зарубежные сериалы и Русские сериалы 2013, 2014, 2015 годов. Оставайтесь с нами, качайте любимые фильмы, игры, сериалы, книги и музыку.