img image001 image001 image001 image001 image001 image001 image001 image001 image001 image001 image001 image001 image001 image001 image001

Planets Sun Sun Sun
Статистика раздачи
Автор: Nickolas3434 | Размер: 12.58 ГБ | Добавлен: 24 сен 2014
Раздают: 9    Качают: 35
Скачать торрент
Скачать торрент
Описание торрента

СообщениеДобавлено: 24 сен 2014 



Информация о фильме
Название: 12 знаков
Оригинальное название: Zodiak - Der Horoskop-Morder
Год выхода: 2007
Жанр: Триллер
Режиссер: Андреас Прохазка
В ролях: Александра Нельдель, Фриц Карл, Фридрих фон Тун, Филип Питерс, Беате Маес, Эдита Маловцик, Мизел Матицевич, Карл Фишер, Эрни Мэнголд, Кристиан Вернер, Филиппа Галли, Ирис Линд

О фильме: У каждой семьи есть тайна. В династии банкиров, в мире богатства, у этой могущественной семьи тайн больше, чем у других. Внебрачная дочь главы семейства возвращается в родовой замок в день рождения своего отца. И в это время один за другим начинают исчезать и погибать члены семьи. Непостижимым образом череда загадочных смертей переплетена со знаками Зодиака и предсказаниями Нострадамуса. Происходящее поражает своей жестокостью и ставит в тупик всех, в том числе и детектива, занятого расследованием этих преступлений. И невозможно понять, кто же этот невидимый и неуловимый убийца, которого все уже называют Зодиаком. Двенадцать знаков астрологии — ключ в опасной охоте на убийцу. Каждый член семьи — определённый знак зодиака, любой из них может быть убийцей, и любой может стать следующей жертвой.



Страна: Германия
Студия: 2 х ~ 03:00:00
Продолжительность:
Перевод: Профессиональный многоголосый
Субтитры: Русские

Файл
Кодек: MPEG-2
Качество: DVD-9
Видео: MPEG2, PAL, PAL 4:3 (720x576) VBR, 25 кадр/с
Аудио #1: Русский, Dolby AC3, 48000 Гц, 192 Кбит/с, 2 канала (Стерео)
Аудио #2: Немецкий, Dolby AC3, 48000 Гц, 192 Кбит/с, 2 канала (Стерео)

Title: DATA
Size: 6.37 Gb ( 6 680 972 KBytes ) - DVD-9
Enabled regions: 1, 2, 3, 4, 5, 6, 7, 8

VTS_01 :
Play Length: 00:00:20
Video: PAL 4:3 (720x576) VBR
Audio:
Russian (Dolby AC3, 2 ch)
Deutsch (Dolby AC3, 2 ch)

VTS_02 :
Play Length: 02:58:15
Video: PAL 4:3 (720x576) VBR
Audio:
Russian (Dolby AC3, 2 ch)
Deutsch (Dolby AC3, 2 ch)
Subtitles:
Russian

VTS_03 :
Play Length: 00:01:40
Video: PAL 16:9 (720x576) VBR, Auto Pan&Scan, Auto Letterboxed
Audio:
Russian (Dolby AC3, 2 ch)
Russian (Dolby AC3, 2 ch)

VTS_04 :
Play Length: 00:01:50
Video: PAL 4:3 (720x576) VBR
Audio:
Russian (Dolby AC3, 2 ch)
Russian (Dolby AC3, 2 ch)

VTS_05 :
Play Length: 00:02:21
Video: PAL 4:3 (720x576) VBR
Audio:
Russian (Dolby AC3, 2 ch)
Russian (Dolby AC3, 2 ch)

Menu Video:
PAL 4:3 (720x576) VBR
Menu English Language Unit :
Root Menu
Общее
Полное имя : D:залить12 ЗНАКОВДиск 1VIDEO_TSVTS_02_1.VOB
Формат : MPEG-PS
Размер файла : 1024 Мбайт
Продолжительность : 27 м.
Режим общего битрейта : Переменный
Общий поток : 5199 Кбит/сек

Видео
Идентификатор : 224 (0xE0)
Формат : MPEG Video
Версия формата : Version 2
Профиль формата : Main@Main
Параметр BVOP формата : Да
Параметр матрицы формата : Выборочная
Параметр GOP формата : M=3, N=12
Продолжительность : 27 м.
Вид битрейта : Переменный
Битрейт : 4712 Кбит/сек
Максимальный битрейт : 9800 Кбит/сек
Ширина : 720 пикселей
Высота : 576 пикселей
Соотношение сторон : 4:3
Частота кадров : 25,000 кадров/сек
Стандарт вещания : PAL
Цветовое пространство : YUV
Субдискретизация насыщенности : 4:2:0
Битовая глубина : 8 бит
Тип развёртки : Чересстрочная
Порядок развёртки : Верхнее поле первое
Метод сжатия : С потерями
Бит/(Пиксели*Кадры) : 0.454
TimeCode_FirstFrame : 00:00:00:00
TimeCode_Source : Group of pictures header
Размер потока : 928 Мбайт (91%)

Аудио #1
Идентификатор : 189 (0xBD)-128 (0x80)
Формат : AC-3
Формат/Информация : Audio Coding 3
Расширение режима : CM (complete main)
Параметр Endianness формата : Big
Режим смешивания : DVD-Video
Продолжительность : 27 м.
Вид битрейта : Постоянный
Битрейт : 192 Кбит/сек
Каналы : 2 канала
Расположение каналов : Front: L R
Частота : 48,0 КГц
Битовая глубина : 16 бит
Метод сжатия : С потерями
Размер потока : 37,8 Мбайт (4%)

Аудио #2
Идентификатор : 189 (0xBD)-129 (0x81)
Формат : AC-3
Формат/Информация : Audio Coding 3
Расширение режима : CM (complete main)
Параметр Endianness формата : Big
Режим смешивания : DVD-Video
Продолжительность : 27 м.
Вид битрейта : Постоянный
Битрейт : 192 Кбит/сек
Каналы : 2 канала
Расположение каналов : Front: L R
Частота : 48,0 КГц
Битовая глубина : 16 бит
Метод сжатия : С потерями
Размер потока : 37,8 Мбайт (4%)

Текст
Идентификатор : 189 (0xBD)-32 (0x20)
Формат : RLE
Формат/Информация : Run-length encoding
Режим смешивания : DVD-Video
Продолжительность : 27 м.
Задержка видео : 3 с. 400 мс.

Меню




   Похожие торренты   Торрент   Размер 
В этой теме нет новых непрочитанных сообщений. 12 знаков / Zodiak - Der Horoskop-Mörder [S01] (2007) DVDRip

42 | 5

4.11 ГБ

В этой теме нет новых непрочитанных сообщений. Янтарный барон [01-12 из 12] (2007) 2хDVD-9

0 | 25

15.13 ГБ

В этой теме нет новых непрочитанных сообщений. Бегство / Die Flucht (2007) 2хDVD-9

2 | 2

11.57 ГБ

В этой теме нет новых непрочитанных сообщений. 13 знаков зодиака [01-13 из 13] (2012) SATRip от Generalfilm

440 | 148

8.36 ГБ

В этой теме нет новых непрочитанных сообщений. Маша и Медведь (1-53 серии) + Машины сказки (1-26 серии) + Машкины страшилки (1-7 серии) + Клип (2009-2015) HDRip, WEB-DLRip от GeneralFilm

1080 | 775

6.85 ГБ

В этой теме нет новых непрочитанных сообщений. В круге первом [01-10 из 10] (2006) 2хDVD-9

2 | 13

14.48 ГБ

В этой теме нет новых непрочитанных сообщений. Дело чести [01-20 из 20] (2013) 2хDVD-9 от NovaLan

82 | 159

15.57 ГБ




Вы не можете начинать темы
Вы не можете отвечать на сообщения
Вы не можете редактировать свои сообщения
Вы не можете удалять свои сообщения
Вы не можете добавлять вложения

Перейти:  
Для Мосгорсуда, Роскомнадзора и рекламодателей: mosgorsud-torrent[собачка]yandex.ru
 Вход
ppkBB3cker v.2 © 2008-2014 @ PPK
[ Time : 0.553s | 14 Queries | GZIP : Off ]

Торрент трекер RUTOR.IN, Не можете зайти на rutor.org? Какой новый адрес рутор? Какое зеркало рутор? Не работает rutor.org и зеркала? Тогда наш торрент специально для вас. Rutor.in неофициальное зеркало rutor. В случае если у Вас заблокирован rutor или вдруг Вы не можете на него зайти, то Вы без труда сможете скачать бесплатно и без рекламы последние новинки кино, игр, сериалов и прочего у нас, на Rutor.in. Не нужно использовать прокси, чтобы зайти на рутор, достаточно воспользоваться нашим ресурсом. Все новые фильмы, игры, сериалы, книги и музыка за 2013 и 2014 годы через торрент бесплатно. Скачивайте фильмы в хорошем качестве, игры для пк, xbox, playstation без регистрации. У нас вы найдете новые Зарубежные сериалы и Русские сериалы 2013, 2014, 2015 годов. Оставайтесь с нами, качайте любимые фильмы, игры, сериалы, книги и музыку.