img image001 image001 image001 image001 image001 image001 image001 image001 image001 image001 image001 image001 image001 image001 image001

Planets Sun Sun Sun
Статистика раздачи
Автор: Nickolas3434 | Размер: 2.02 ГБ | Добавлен: 25 сен 2014
Раздают: 91    Качают: 16
Скачать торрент
Скачать торрент
Описание торрента

СообщениеДобавлено: 25 сен 2014 

Название: От заката до рассвета
Оригинальное название: From Dusk Till Dawn: The Series
Год выпуска: 2014
Жанр: Ужасы, боевик, криминал
Режиссер: Роберт Родригес, Джо Менендес, Эдуардо Санчес
В ролях: Ди Джей Котрона, Зейн Холц, Джесси Гарсиа, Эйса Гонсалес, Уилмер Вальдеррама, Эдрианн Палики, Джейк Бьюзи, Дон Джонсон, Мэдисон Девенпорт, Лэйн Гаррисон, Роберт Патрик, Брэндон Су Ху

О фильме:
Сет Гекко, грабитель банков, и его не совсем психически стабильный братец Ричард находятся в розыске. Разыскивают их не только ФБР, но и техасские законники — шериф МакГроу и рейнджер Гонсалес, которые утраивают усилия после того, как после очередного ограбления, устроенного братьями Гекко, в банке остается несколько трупов. Пытаясь удрать в Мексику, Гекко сталкиваются с бывшим священником Джейкобом Фуллером и его семьей, которых берут в заложники и в их же трейлере отправляются к мексиканской границе. Заехав в небольшой стрип-клуб по дороге, они неудачно знакомятся с целой прорвой жаждущих крови вампиров и пытаются хотя бы дожить до рассвета, не говоря уже о том, чтобы истребить как можно больше чудовищ



01. Пилот / Pilot
02. Кровь не вода / Blood Runs Thick
03. Госпожа / Mistress
04. Давайте путешествовать / Let's Get Ramblin
05. Само­достаточные / Self-Contained
06. Кладбище всех дорог / Place of Dead Roads
07. Пандемониум / Pandemonium
08. Конкиста / La Conquista
09. Взломщик / Boxman
10. Доля / The Take

Страна: США
Студия: FactoryMade Ventures, Miramax Films, Rodriguez International Pictures
Продолжительность: 10 х ~ 00:48:00
Перевод: Профессиональный (многоголосый, закадровый) [LostFilm]

Файл
Формат: MP4
Качество: HDRip, WEB-DLRip | КПК
Видео: MPEG-4 AVC (x264), 640x360, ~500 kbps, 23.976 fps
Аудио: AAC LC, 48.0 KHz, 2 ch, 128 Kbps
Субтитры: Нет

Семпл


Complete name : E:KinoOt.Zakata.Do.Rassveta.AVC.WEB-DLRip.KPK.LF.GeneralfilmOt.Zakata.Do.Rassveta.S01.2014.AVC.WEB-DLRip.KPK.LF.GeneralfilmOt.Zakata.Do.Rassveta.s01e04.2014.AVC.WEB-DLRip.KPK.LF.Generalfilm.mp4
Format : MPEG-4
Format profile : Base Media
Codec ID : isom
File size : 219 MiB
Duration : 48mn 27s
Overall bit rate mode : Variable
Overall bit rate : 631 Kbps
Encoded date : UTC 2014-09-06 12:35:46
Tagged date : UTC 2014-09-06 12:35:46

Video
ID : 1
Format : AVC
Format/Info : Advanced Video Codec
Format profile : Baseline@L4.1
Format settings, CABAC : No
Format settings, ReFrames : 6 frames
Codec ID : avc1
Codec ID/Info : Advanced Video Coding
Duration : 48mn 27s
Bit rate : 500 Kbps
Maximum bit rate : 6 761 Kbps
Width : 640 pixels
Height : 360 pixels
Display aspect ratio : 16:9
Frame rate mode : Constant
Frame rate : 23.976 fps
Color space : YUV
Chroma subsampling : 4:2:0
Bit depth : 8 bits
Scan type : Progressive
Bits/(Pixel*Frame) : 0.091
Stream size : 173 MiB (79%)
Writing library : x264 core 125 r2200 999b753
Encoding settings : cabac=0 / ref=6 / deblock=1:-1:-1 / analyse=0x1:0x111 / me=umh / subme=7 / psy=1 / psy_rd=1.00:0.00 / mixed_ref=0 / me_range=16 / chroma_me=1 / trellis=1 / 8x8dct=0 / cqm=0 / deadzone=21,11 / fast_pskip=0 / chroma_qp_offset=-2 / threads=12 / lookahead_threads=2 / sliced_threads=0 / nr=0 / decimate=1 / interlaced=0 / bluray_compat=0 / constrained_intra=0 / bframes=0 / weightp=0 / keyint=250 / keyint_min=23 / scenecut=40 / intra_refresh=0 / rc_lookahead=60 / rc=2pass / mbtree=1 / bitrate=500 / ratetol=1.0 / qcomp=0.60 / qpmin=0 / qpmax=69 / qpstep=4 / cplxblur=20.0 / qblur=0.5 / ip_ratio=1.40 / aq=1:1.00
Encoded date : UTC 2014-09-06 12:35:46
Tagged date : UTC 2014-09-06 12:35:50

Audio
ID : 2
Format : AAC
Format/Info : Advanced Audio Codec
Format profile : LC
Codec ID : 40
Duration : 48mn 27s
Bit rate mode : Variable
Bit rate : 128 Kbps
Maximum bit rate : 145 Kbps
Channel count : 2 channels
Channel positions : Front: L R
Sampling rate : 48.0 KHz
Compression mode : Lossy
Stream size : 44.3 MiB (20%)
Encoded date : UTC 2014-09-06 12:35:49
Tagged date : UTC 2014-09-06 12:35:50

Релиз от:



   Похожие торренты   Торрент   Размер 
В этой теме нет новых непрочитанных сообщений. От заката до рассвета / From Dusk Till Dawn: The Series [S01-03] (2014-2016) WEB-DLRip от Generalfilm | КПК | LostFilm

24 | 13

5.99 ГБ

В этой теме нет новых непрочитанных сообщений. От заката до рассвета / From Dusk Till Dawn: The Series [S01] (2014) WEB-DLRip | КПК | LostFilm

6 | 9

2.03 ГБ

В этой теме нет новых непрочитанных сообщений. От заката до рассвета / From Dusk Till Dawn: The Series [S01] (2014) WEB-DLRip | LostFilm

357 | 352

5.35 ГБ

В этой теме нет новых непрочитанных сообщений. От заката до рассвета / From Dusk Till Dawn: The Series [01x01-09 из 10] (2014) WEB-DLRip | LostFilm

33 | 26

4.93 ГБ

В этой теме нет новых непрочитанных сообщений. От заката до рассвета / From Dusk Till Dawn: The Series [01x01-05 из 10] (2014) WEB-DLRip | LostFilm

59 | 46

2.92 ГБ

В этой теме нет новых непрочитанных сообщений. От заката до рассвета / From Dusk Till Dawn: The Series [01x01-07 из 10] (2014) WEB-DLRip | LostFilm

74 | 38

4.09 ГБ

В этой теме нет новых непрочитанных сообщений. От заката до рассвета / From Dusk Till Dawn: The Series [01x01-02 из 10] (2014) WEB-DLRip | LostFilm

15 | 4

1.25 ГБ




Вы не можете начинать темы
Вы не можете отвечать на сообщения
Вы не можете редактировать свои сообщения
Вы не можете удалять свои сообщения
Вы не можете добавлять вложения

Перейти:  
Для Мосгорсуда, Роскомнадзора и рекламодателей: mosgorsud-torrent[собачка]yandex.ru
 Вход
ppkBB3cker v.2 © 2008-2014 @ PPK
[ Time : 0.064s | 15 Queries | GZIP : Off ]

Торрент трекер RUTOR.IN, Не можете зайти на rutor.org? Какой новый адрес рутор? Какое зеркало рутор? Не работает rutor.org и зеркала? Тогда наш торрент специально для вас. Rutor.in неофициальное зеркало rutor. В случае если у Вас заблокирован rutor или вдруг Вы не можете на него зайти, то Вы без труда сможете скачать бесплатно и без рекламы последние новинки кино, игр, сериалов и прочего у нас, на Rutor.in. Не нужно использовать прокси, чтобы зайти на рутор, достаточно воспользоваться нашим ресурсом. Все новые фильмы, игры, сериалы, книги и музыка за 2013 и 2014 годы через торрент бесплатно. Скачивайте фильмы в хорошем качестве, игры для пк, xbox, playstation без регистрации. У нас вы найдете новые Зарубежные сериалы и Русские сериалы 2013, 2014, 2015 годов. Оставайтесь с нами, качайте любимые фильмы, игры, сериалы, книги и музыку.