img image001 image001 image001 image001 image001 image001 image001 image001 image001 image001 image001 image001 image001 image001 image001

Planets Sun Sun Sun
Статистика раздачи
Автор: Nickolas3434 | Размер: 4.68 ГБ | Добавлен: 28 сен 2014
Раздают: 211    Качают: 322
Скачать торрент
Скачать торрент
Описание торрента

СообщениеДобавлено: 28 сен 2014 


АНОНСЫ МОИХ РИПОВ! ЛУЧШИЕ ФИЛЬМЫ И СЕРИАЛЫ ВСЕЙ ПЛАНЕТЫ! Подпишись :)

Реальные пацаны. Возвращение

Год выпуска: 2014
Жанр: комедия, ситком
Продолжительность: ~ 00:25:00
Перевод: не требуется

Режиссер: Жанна Кадникова

В ролях: Николай Наумов (Колян), Антон Богданов (Антоха), Владимир Селиванов (Вован), Станислав Тляшев (Эдик), Зоя Бербер (Лера), Марина Федункив (Марина, мама Коляна), Мария Скорницкая (Машка), Валентина Мазунина (Валя), Армен Бежанян (Армен), Игорь Ознобихин (участковый Игорь Сергеевич), Алексей Базанов (Базанов), Елена Печищева.

Описание: Обычный, рядовой российский парень Коля не может определиться между жизнью «на районе» и миром пермской элиты общества. На протяжении всего сериала его ждут увлекательные и смешные истории.



Качество: WEB-DLRip [WEB-DL 720p]
Формат: AVI
Видео кодек: XviD
Аудио кодек: MP3
Видео: 704x400 (1.76:1), 25 fps, XviD build 73 ~1640 kbps avg, 0.23 bit/pixel
Аудио: 48 kHz, MPEG Layer 3, 2 ch, ~128.00 kbps avg

Раздача от:


D:Мои рипыRealnie.pacani.S06.web-dlrip.dexter_lex1.avi
General
Complete name : D:Мои рипыRealnie.pacani.S06.web-dlrip.dexter_lex1.avi
Format : AVI
Format/Info : Audio Video Interleave
File size : 299 MiB
Duration : 23mn 30s
Overall bit rate : 1 778 Kbps
Writing application : VirtualDubMod 1.5.10.3 | www.virtualdub-fr.org || (build 2550/release)
Writing library : VirtualDubMod build 2550/release
Video #0
ID : 0
Format : MPEG-4 Visual
Format profile : Advanced Simple@L5
Format settings, BVOP : 1
Format settings, QPel : No
Format settings, GMC : No warppoints
Format settings, Matrix : Custom
Codec ID : XVID
Codec ID/Hint : XviD
Duration : 23mn 30s
Bit rate : 1 641 Kbps
Width : 704 pixels
Height : 400 pixels
Display aspect ratio : 16:9
Frame rate : 25.000 fps
Color space : YUV
Chroma subsampling : 4:2:0
Bit depth : 8 bits
Scan type : Progressive
Compression mode : Lossy
Bits/(Pixel*Frame) : 0.233
Stream size : 276 MiB (92%)
Writing library : XviD 73
Audio #1
ID : 1
Format : MPEG Audio
Format version : Version 1
Format profile : Layer 3
Codec ID : 55
Codec ID/Hint : MP3
Duration : 23mn 30s
Bit rate mode : Constant
Bit rate : 128 Kbps
Channel(s) : 2 channels
Sampling rate : 48.0 KHz
Compression mode : Lossy
Stream size : 21.5 MiB (7%)
Alignment : Aligned on interleaves
Interleave, duration : 40 ms (1.00 video frame)
Interleave, preload duration : 504 ms
Writing library : LAME3.99r
Encoding settings : -m s -V 4 -q 2 -lowpass 17 -b 128




   Похожие торренты   Торрент   Размер 
В этой теме нет новых непрочитанных сообщений. Реальные пацаны. Возвращение [06х01-04] (2014) WEB-DLRip от New-Team

162 | 112

1.17 ГБ

В этой теме нет новых непрочитанных сообщений. Реальные пацаны. Возвращение [06х01-18] (2014) WEB-DLRip

185 | 479

5.99 ГБ

В этой теме нет новых непрочитанных сообщений. Реальные пацаны. Возвращение [06х01] (2014) WEB-DL 720p от MediaClub

2045 | 17

562.11 МБ

В этой теме нет новых непрочитанных сообщений. Реальные пацаны. Возвращение [06х01-13] (2014) WEB-DL 720p от MediaClub

947 | 2741

6.89 ГБ

В этой теме нет новых непрочитанных сообщений. Реальные пацаны. Возвращение [06х01-11] (2014) WEB-DL 720p от MediaClub

1303 | 4211

5.82 ГБ

В этой теме нет новых непрочитанных сообщений. Реальные пацаны. Возвращение [06х01-04] (2014) WEB-DL 720p от MediaClub

1838 | 1647

2.2 ГБ

В этой теме нет новых непрочитанных сообщений. Реальные пацаны. Возвращение [06х01-16] (2014) WEB-DL 720p от MediaClub

1816 | 4637

8.49 ГБ




Вы не можете начинать темы
Вы не можете отвечать на сообщения
Вы не можете редактировать свои сообщения
Вы не можете удалять свои сообщения
Вы не можете добавлять вложения

Перейти:  
Для Мосгорсуда, Роскомнадзора и рекламодателей: mosgorsud-torrent[собачка]yandex.ru
 Вход
ppkBB3cker v.2 © 2008-2014 @ PPK
[ Time : 0.518s | 15 Queries | GZIP : Off ]

Торрент трекер RUTOR.IN, Не можете зайти на rutor.org? Какой новый адрес рутор? Какое зеркало рутор? Не работает rutor.org и зеркала? Тогда наш торрент специально для вас. Rutor.in неофициальное зеркало rutor. В случае если у Вас заблокирован rutor или вдруг Вы не можете на него зайти, то Вы без труда сможете скачать бесплатно и без рекламы последние новинки кино, игр, сериалов и прочего у нас, на Rutor.in. Не нужно использовать прокси, чтобы зайти на рутор, достаточно воспользоваться нашим ресурсом. Все новые фильмы, игры, сериалы, книги и музыка за 2013 и 2014 годы через торрент бесплатно. Скачивайте фильмы в хорошем качестве, игры для пк, xbox, playstation без регистрации. У нас вы найдете новые Зарубежные сериалы и Русские сериалы 2013, 2014, 2015 годов. Оставайтесь с нами, качайте любимые фильмы, игры, сериалы, книги и музыку.