img image001 image001 image001 image001 image001 image001 image001 image001 image001 image001 image001 image001 image001 image001 image001

Planets Sun Sun Sun
Статистика раздачи
Автор: Nickolas3434 | Размер: 4.38 ГБ | Добавлен: 28 сен 2014
Раздают: 257    Качают: 81
Скачать торрент
Скачать торрент
Описание торрента

СообщениеДобавлено: 28 сен 2014 

Страна: Россия
Производство: Нон-стоп Продакшн, Твин Медиа

Жанр: драма, военный
Год выпуска: 2012
Продолжительность: 09:41:41 (01:29:45 + 01:40:59 + 01:40:22 + 01:23:35)

Перевод: не требуется
Оригинальная аудиодорожка: русский
Cубтитры: нет

Режиссер: Сергей Снежкин

В ролях:
Константин Хабенский, Ксения Раппопорт, Сергей Гармаш, Михаил Пореченков, Евгений Дятлов, Николай Ефремов (II), Сергей Маковецкий, Фёдор Бондарчук, Алексей Серебряков, Мария Луговая, Сергей Брюн, Евгений Стычкин, Андрей Зибров, Сергей Шакуров, Сергей Барковский, Александр Ильин, Мария Шукшина, Алиса Фрейндлих, Кирилл Жандаров, Артур Смольянинов, Екатерина Вилкова, Евгений Ефремов, Семен Лебин, Янина Студилина, Владимир Вдовиченков, Юрий Стоянов, Евгения Добровольская, Алексей Гуськов, Иван Краско, Артур Ваха, Игорь Верник, Сергей Трифонов, Владимир Брик, Юрий Ицков, Дмитрий Лысенков, Янина Судзинская, Ирина Скобцева, Андрей Смоляков, Николай Чиндяйкин, Ксения Кутепова, Максим Леонидов...

Описание:
Действие происходит в Киеве, зимой 1918-го года. Тихая, интеллигентная семья Турбиных становится свидетельницей и участницей страшных событий кровавого 1918-го года. Главные герои — старший брат Алексей, сестра Елена, младший Николка и их друзья Мышлаевский, Карась и Шервинский — вовлечены в круговорот военных и политических событий. Их личные драмы разворачиваются на фоне трагедии всей страны — из Киева уходят немцы, оккупировавшие Украину, и его захватывают войска Петлюры.






Исходник: BDRemux 1080p
Тип релиза: BDRip
Контейнер: AVI

Видео: 720x400 (16:9), 25 fps, XviD ~ 1216 kbps avg, 0.169 bit/pixel
Аудио: 48 kHz, Dolby AC3 5.1, 448 kbps

Раздача от:
Общее
Полное имя : Belaya.Gvardiya.2012.BDRip_[New-team]_by_AVP_Studio.avi
Формат : AVI
Формат/Информация : Audio Video Interleave
Размер файла : 1,05 Гбайт
Продолжительность : 1 ч. 29 м.
Общий поток : 1674 Кбит/сек
Программа кодирования : VirtualDubModRus 1.5.10.2 (build 2542/release)
Библиотека кодирования : VirtualDubMod build 2542/release

Видео
Идентификатор : 0
Формат : MPEG-4 Visual
Профиль формата : Advanced Simple@L5
Параметр BVOP формата : 1
Параметр QPel формата : Нет
Параметр GMC формата : Без точки перехода
Параметр матрицы формата : Выборочная
Идентификатор кодека : XVID
Идентификатор кодека/Подсказка : XviD
Продолжительность : 1 ч. 29 м.
Битрейт : 1216 Кбит/сек
Ширина : 720 пикселей
Высота : 400 пикселей
Соотношение сторон : 16:9
Частота кадров : 25,000 кадров/сек
Цветовое пространство : YUV
Субдискретизация насыщенности : 4:2:0
Битовая глубина : 8 бит
Тип развёртки : Прогрессивная
Метод сжатия : С потерями
Бит/(Пиксели*Кадры) : 0.169
Размер потока : 781 Мбайт (73%)
Библиотека кодирования : XviD 73

Аудио
Идентификатор : 1
Формат : AC-3
Формат/Информация : Audio Coding 3
Расширение режима : CM (complete main)
Параметр Endianness формата : Big
Идентификатор кодека : 2000
Продолжительность : 1 ч. 29 м.
Вид битрейта : Постоянный
Битрейт : 448 Кбит/сек
Каналы : 6 каналов
Расположение каналов : Front: L C R, Side: L R, LFE
Частота : 48,0 КГц
Битовая глубина : 16 бит
Метод сжатия : С потерями
Размер потока : 288 Мбайт (27%)
Выравнивание : Разделение по промежуткам
Продолжительность промежутка : 40 мс. (1,00 видеокадр)
Время предзагрузки промежутка : 500 мс





   Похожие торренты   Торрент   Размер 
В этой теме нет новых непрочитанных сообщений. Белая гвардия [01-04 из 04] (2012) BDRip-AVC от New-Team

107 | 31

7.95 ГБ

В этой теме нет новых непрочитанных сообщений. Белая гвардия [01-04 из 04] (2012) BDRip-AVC от R.G. AVI | AVC

27 | 8

6.68 ГБ

В этой теме нет новых непрочитанных сообщений. Белая гвардия [01-04 из 04] (2012) BDRip

150 | 24

5.6 ГБ

В этой теме нет новых непрочитанных сообщений. Белая гвардия [01-04 из 04] (2012) BDRip 720p

96 | 11

16.03 ГБ

В этой теме нет новых непрочитанных сообщений. Белая гвардия [01-04 из 04] (2012) BDRip от CinemaClub

314 | 21

2.73 ГБ

В этой теме нет новых непрочитанных сообщений. Белая гвардия [01-04 из 04] (2012) BDRip 1080p

35 | 7

26.46 ГБ

В этой теме нет новых непрочитанных сообщений. Белая гвардия. Предисловие (2012) DVB

0 | 2

3.19 ГБ




Вы не можете начинать темы
Вы не можете отвечать на сообщения
Вы не можете редактировать свои сообщения
Вы не можете удалять свои сообщения
Вы не можете добавлять вложения

Перейти:  
Для Мосгорсуда, Роскомнадзора и рекламодателей: mosgorsud-torrent[собачка]yandex.ru
 Вход
ppkBB3cker v.2 © 2008-2014 @ PPK
[ Time : 0.054s | 16 Queries | GZIP : Off ]

Торрент трекер RUTOR.IN, Не можете зайти на rutor.org? Какой новый адрес рутор? Какое зеркало рутор? Не работает rutor.org и зеркала? Тогда наш торрент специально для вас. Rutor.in неофициальное зеркало rutor. В случае если у Вас заблокирован rutor или вдруг Вы не можете на него зайти, то Вы без труда сможете скачать бесплатно и без рекламы последние новинки кино, игр, сериалов и прочего у нас, на Rutor.in. Не нужно использовать прокси, чтобы зайти на рутор, достаточно воспользоваться нашим ресурсом. Все новые фильмы, игры, сериалы, книги и музыка за 2013 и 2014 годы через торрент бесплатно. Скачивайте фильмы в хорошем качестве, игры для пк, xbox, playstation без регистрации. У нас вы найдете новые Зарубежные сериалы и Русские сериалы 2013, 2014, 2015 годов. Оставайтесь с нами, качайте любимые фильмы, игры, сериалы, книги и музыку.
cron