img image001 image001 image001 image001 image001 image001 image001 image001 image001 image001 image001 image001 image001 image001 image001

Planets Sun Sun Sun
Статистика раздачи
Автор: Nickolas3434 | Размер: 7.95 ГБ | Добавлен: 01 окт 2014
Раздают: 118    Качают: 30
Скачать торрент
Скачать торрент
Описание торрента

СообщениеДобавлено: 01 окт 2014 

Страна: Россия
Производство: Нон-стоп Продакшн, Твин Медиа

Жанр: драма, военный
Год выпуска: 2012
Продолжительность: 06:14:41 (01:29:45 + 01:40:59 + 01:40:22 + 01:23:35)

Перевод: не требуется
Оригинальная аудиодорожка: русский
Cубтитры: нет

Режиссер: Сергей Снежкин

В ролях:
Константин Хабенский, Ксения Раппопорт, Сергей Гармаш, Михаил Пореченков, Евгений Дятлов, Николай Ефремов (II), Сергей Маковецкий, Фёдор Бондарчук, Алексей Серебряков, Мария Луговая, Сергей Брюн, Евгений Стычкин, Андрей Зибров, Сергей Шакуров, Сергей Барковский, Александр Ильин, Мария Шукшина, Алиса Фрейндлих, Кирилл Жандаров, Артур Смольянинов, Екатерина Вилкова, Евгений Ефремов, Семен Лебин, Янина Студилина, Владимир Вдовиченков, Юрий Стоянов, Евгения Добровольская, Алексей Гуськов, Иван Краско, Артур Ваха, Игорь Верник, Сергей Трифонов, Владимир Брик, Юрий Ицков, Дмитрий Лысенков, Янина Судзинская, Ирина Скобцева, Андрей Смоляков, Николай Чиндяйкин, Ксения Кутепова, Максим Леонидов...

Описание:
Действие происходит в Киеве, зимой 1918-го года. Тихая, интеллигентная семья Турбиных становится свидетельницей и участницей страшных событий кровавого 1918-го года. Главные герои — старший брат Алексей, сестра Елена, младший Николка и их друзья Мышлаевский, Карась и Шервинский — вовлечены в круговорот военных и политических событий. Их личные драмы разворачиваются на фоне трагедии всей страны — из Киева уходят немцы, оккупировавшие Украину, и его захватывают войска Петлюры.






Исходник: BDRemux 1080p
Тип релиза: BDRip-AVC
Контейнер: MKV

Видео: 1024x576 (16:9), 25 fps, H264 ~ 2588 kbps avg, 0.176 bit/pixel
Аудио: 48 kHz, Dolby AC3 5.1, 448 kbps

Раздача от:
Общее
Полное имя : Belaya.Gvardiya.2012.BDRip-AVC_[New-team]_by_AVP_Studio.mkv
Формат : Matroska
Версия формата : Version 2
Размер файла : 2,13 Гбайт
Продолжительность : 1 ч. 40 м.
Общий поток : 3037 Кбит/сек
Дата кодирования : UTC 2014-09-28 15:34:35
Программа кодирования : mkvmerge v6.1.0 ('Old Devil') built on Mar 4 2013 09:10:42
Библиотека кодирования : libebml v1.3.0 + libmatroska v1.4.0

Видео
Идентификатор : 1
Формат : AVC
Формат/Информация : Advanced Video Codec
Профиль формата : High@L4.1
Параметр CABAC формата : Да
Параметр ReFrames формата : 8 кадров
Идентификатор кодека : V_MPEG4/ISO/AVC
Продолжительность : 1 ч. 40 м.
Битрейт : 2588 Кбит/сек
Ширина : 1024 пикселя
Высота : 576 пикселей
Соотношение сторон : 16:9
Режим частоты кадров : Постоянный
Частота кадров : 25,000 кадров/сек
Цветовое пространство : YUV
Субдискретизация насыщенности : 4:2:0
Битовая глубина : 8 бит
Тип развёртки : Прогрессивная
Бит/(Пиксели*Кадры) : 0.176
Размер потока : 1,77 Гбайт (83%)
Библиотека кодирования : x264 core 138 r2356 a1d3d17
Настройки программы : cabac=1 / ref=8 / deblock=1:-3:-2 / analyse=0x3:0x113 / me=umh / subme=10 / psy=1 / psy_rd=1.00:0.05 / mixed_ref=1 / me_range=32 / chroma_me=1 / trellis=2 / 8x8dct=1 / cqm=0 / deadzone=21,11 / fast_pskip=1 / chroma_qp_offset=-3 / threads=6 / lookahead_threads=1 / sliced_threads=0 / nr=0 / decimate=0 / interlaced=0 / bluray_compat=0 / constrained_intra=0 / bframes=8 / b_pyramid=2 / b_adapt=2 / b_bias=0 / direct=3 / weightb=1 / open_gop=0 / weightp=2 / keyint=250 / keyint_min=25 / scenecut=40 / intra_refresh=0 / rc_lookahead=40 / rc=2pass / mbtree=1 / bitrate=2588 / ratetol=1.0 / qcomp=0.60 / qpmin=0 / qpmax=69 / qpstep=4 / cplxblur=20.0 / qblur=0.5 / ip_ratio=1.40 / aq=1:1.00
Default : Да
Forced : Нет

Аудио
Идентификатор : 2
Формат : AC-3
Формат/Информация : Audio Coding 3
Расширение режима : CM (complete main)
Параметр Endianness формата : Big
Идентификатор кодека : A_AC3
Продолжительность : 1 ч. 40 м.
Вид битрейта : Постоянный
Битрейт : 448 Кбит/сек
Каналы : 6 каналов
Расположение каналов : Front: L C R, Side: L R, LFE
Частота : 48,0 КГц
Битовая глубина : 16 бит
Метод сжатия : С потерями
Размер потока : 322 Мбайт (15%)
Default : Да
Forced : Нет





   Похожие торренты   Торрент   Размер 
В этой теме нет новых непрочитанных сообщений. Белая гвардия [01-04 из 04] (2012) BDRip от New-Team

260 | 80

4.38 ГБ

В этой теме нет новых непрочитанных сообщений. Белая гвардия [01-04 из 04] (2012) BDRip-AVC от R.G. AVI | AVC

27 | 8

6.68 ГБ

В этой теме нет новых непрочитанных сообщений. Белая гвардия [01-04 из 04] (2012) BDRip

150 | 24

5.6 ГБ

В этой теме нет новых непрочитанных сообщений. Белая гвардия [01-04 из 04] (2012) BDRip от CinemaClub

314 | 21

2.73 ГБ

В этой теме нет новых непрочитанных сообщений. Белая гвардия [01-04 из 04] (2012) BDRip 720p

96 | 11

16.03 ГБ

В этой теме нет новых непрочитанных сообщений. Белая гвардия [01-04 из 04] (2012) BDRip 1080p

37 | 8

26.46 ГБ

В этой теме нет новых непрочитанных сообщений. Белая гвардия. Предисловие (2012) DVB

0 | 2

3.19 ГБ




Вы не можете начинать темы
Вы не можете отвечать на сообщения
Вы не можете редактировать свои сообщения
Вы не можете удалять свои сообщения
Вы не можете добавлять вложения

Перейти:  
Для Мосгорсуда, Роскомнадзора и рекламодателей: mosgorsud-torrent[собачка]yandex.ru
 Вход
ppkBB3cker v.2 © 2008-2014 @ PPK
[ Time : 0.051s | 15 Queries | GZIP : Off ]

Торрент трекер RUTOR.IN, Не можете зайти на rutor.org? Какой новый адрес рутор? Какое зеркало рутор? Не работает rutor.org и зеркала? Тогда наш торрент специально для вас. Rutor.in неофициальное зеркало rutor. В случае если у Вас заблокирован rutor или вдруг Вы не можете на него зайти, то Вы без труда сможете скачать бесплатно и без рекламы последние новинки кино, игр, сериалов и прочего у нас, на Rutor.in. Не нужно использовать прокси, чтобы зайти на рутор, достаточно воспользоваться нашим ресурсом. Все новые фильмы, игры, сериалы, книги и музыка за 2013 и 2014 годы через торрент бесплатно. Скачивайте фильмы в хорошем качестве, игры для пк, xbox, playstation без регистрации. У нас вы найдете новые Зарубежные сериалы и Русские сериалы 2013, 2014, 2015 годов. Оставайтесь с нами, качайте любимые фильмы, игры, сериалы, книги и музыку.