img image001 image001 image001 image001 image001 image001 image001 image001 image001 image001 image001 image001 image001 image001 image001

Planets Sun Sun Sun
Статистика раздачи
Автор: Nickolas3434 | Размер: 2.19 ГБ | Добавлен: 01 окт 2014
Раздают: 42    Качают: 16
Скачать торрент
Скачать торрент
Описание торрента

СообщениеДобавлено: 01 окт 2014 

Страна: СССР
Производство: Гостелерадио, Мосфильм

Жанр: драма
Год выпуска: 1976
Продолжительность: 03:32:06 (01:15:27 + 01:13:30 + 01:03:09)

Перевод: не требуется
Оригинальная аудиодорожка: русский
Cубтитры: нет

Режиссер: Владимир Басов

В ролях: Андрей Мягков, Андрей Ростоцкий, Валентина Титова, Олег Басилашвили, Владимир Басов, Василий Лановой, Пётр Щербаков, Сергей Иванов, Владимир Самойлов, Виктор Чекмарёв, Маргарита Криницына, Глеб Стриженов, Вадим Грачёв, Иван Рыжов, Федор Никитин, Игорь Безяев, Алексей Коняшин, Николай Сморчков, Михаил Селютин, Владимир Соколов, Дмитрий Орловский, Борислав Брондуков, Алексей Горячев, Виталий Максимов, Елена Судакова, Владимир Протасенко, Андрей Рабинович, Александр Савченко, Сергей Бачурский, Лев Перфилов, Василий Фущич, Александр Белина, Людмила Лобза, Юрий Мысенков, Агафья Болотова, Ада Волошина, Борис Минаев...

Описание: Фильм повествует об интеллигенции и революции в России, о жизни семьи офицеров Турбиных. Киев, зима 1918-1919 годов. Гражданская война. Власть в городе переходит от гетмана к Директории, от Петлюры - к большевикам. Турбиным и их знакомым приходится делать свой выбор. Полковник Алексей Турбин и его брат Николай остаются верными белому движению и мужественно отстаивают его, не щадя жизни. Муж Елены, урождённой Турбиной, Владимир Тальберг позорно бежит из города с отступающими германскими войсками. В это смутное время семья и близкие друзья собираются и отмечают Новый Год. В гости к ним приезжает странный и немного нелепый человек, дальний родственник Турбиных - Ларион Суржанский, Лариосик...





Исходник: 2хDVD9 R5
Тип релиза: DVDRip
Контейнер: AVI

Видео: 704x528 (4:3), 25 fps, XviD ~ 1338 kbps avg, 0.144 bit/pixel
Аудио: 48 kHz, MP3 2.0, 128 kbps

Раздача от:
Общее
Полное имя : Dni.Turbinyh.1976.DVDRip-2,18_[New-team]_by_AVP_Studio.avi
Формат : AVI
Формат/Информация : Audio Video Interleave
Размер файла : 776 Мбайт
Продолжительность : 1 ч. 13 м.
Общий поток : 1476 Кбит/сек
Программа кодирования : VirtualDubModRus 1.5.10.2 (build 2542/release)
Библиотека кодирования : VirtualDubMod build 2542/release

Видео
Идентификатор : 0
Формат : MPEG-4 Visual
Профиль формата : Advanced Simple@L5
Параметр BVOP формата : 1
Параметр QPel формата : Нет
Параметр GMC формата : Без точки перехода
Параметр матрицы формата : Выборочная
Идентификатор кодека : XVID
Идентификатор кодека/Подсказка : XviD
Продолжительность : 1 ч. 13 м.
Битрейт : 1338 Кбит/сек
Ширина : 704 пикселя
Высота : 528 пикселей
Соотношение сторон : 4:3
Частота кадров : 25,000 кадров/сек
Цветовое пространство : YUV
Субдискретизация насыщенности : 4:2:0
Битовая глубина : 8 бит
Тип развёртки : Прогрессивная
Метод сжатия : С потерями
Бит/(Пиксели*Кадры) : 0.144
Размер потока : 704 Мбайт (91%)
Библиотека кодирования : XviD 73

Аудио
Идентификатор : 1
Формат : MPEG Audio
Версия формата : Version 1
Профиль формата : Layer 3
Идентификатор кодека : 55
Идентификатор кодека/Подсказка : MP3
Продолжительность : 1 ч. 13 м.
Вид битрейта : Постоянный
Битрейт : 128 Кбит/сек
Каналы : 2 канала
Частота : 48,0 КГц
Метод сжатия : С потерями
Размер потока : 67,3 Мбайт (9%)
Выравнивание : Соединение по промежуткам
Продолжительность промежутка : 40 мс. (1,00 видеокадр)
Время предзагрузки промежутка : 504 мс.
Библиотека кодирования : LAME3.99r
Настройки программы : -m s -V 4 -q 2 -lowpass 17 -b 128





   Похожие торренты   Торрент   Размер 
В этой теме нет новых непрочитанных сообщений. Дни Турбиных [01-03 из 03] (1976) DVDRip от New-Team

38 | 17

2.91 ГБ

В этой теме нет новых непрочитанных сообщений. Дни Турбиных [01-03 из 03] (1976) DVDRip-AVC от New-Team

94 | 9

2.91 ГБ

В этой теме нет новых непрочитанных сообщений. Дни Турбиных (1976) DVDRip-AVC от ExKinoRay

423 | 29

3.78 ГБ

В этой теме нет новых непрочитанных сообщений. Дни Турбиных (1976) DVDRip | Реставрация

31 | 10

3.86 ГБ

В этой теме нет новых непрочитанных сообщений. Дни Турбиных (1976) DVD9 | Реставрация

1 | 5

12.59 ГБ

В этой теме нет новых непрочитанных сообщений. Ты - мне, я - тебе (1976) DVDRip от New-Team

32 | 10

1.46 ГБ

В этой теме нет новых непрочитанных сообщений. Ты - мне, я - тебе (1976) DVDRip-AVC от New-Team

12 | 7

743.67 МБ




Вы не можете начинать темы
Вы не можете отвечать на сообщения
Вы не можете редактировать свои сообщения
Вы не можете удалять свои сообщения
Вы не можете добавлять вложения

Перейти:  
Для Мосгорсуда, Роскомнадзора и рекламодателей: mosgorsud-torrent[собачка]yandex.ru
 Вход
ppkBB3cker v.2 © 2008-2014 @ PPK
[ Time : 0.059s | 15 Queries | GZIP : Off ]

Торрент трекер RUTOR.IN, Не можете зайти на rutor.org? Какой новый адрес рутор? Какое зеркало рутор? Не работает rutor.org и зеркала? Тогда наш торрент специально для вас. Rutor.in неофициальное зеркало rutor. В случае если у Вас заблокирован rutor или вдруг Вы не можете на него зайти, то Вы без труда сможете скачать бесплатно и без рекламы последние новинки кино, игр, сериалов и прочего у нас, на Rutor.in. Не нужно использовать прокси, чтобы зайти на рутор, достаточно воспользоваться нашим ресурсом. Все новые фильмы, игры, сериалы, книги и музыка за 2013 и 2014 годы через торрент бесплатно. Скачивайте фильмы в хорошем качестве, игры для пк, xbox, playstation без регистрации. У нас вы найдете новые Зарубежные сериалы и Русские сериалы 2013, 2014, 2015 годов. Оставайтесь с нами, качайте любимые фильмы, игры, сериалы, книги и музыку.