img image001 image001 image001 image001 image001 image001 image001 image001 image001 image001 image001 image001 image001 image001 image001

Planets Sun Sun Sun
Статистика раздачи
Автор: Nickolas3434 | Размер: 2.91 ГБ | Добавлен: 01 окт 2014
Раздают: 94    Качают: 9
Скачать торрент
Скачать торрент
Описание торрента

СообщениеДобавлено: 01 окт 2014 

Страна: СССР
Производство: Гостелерадио, Мосфильм

Жанр: драма
Год выпуска: 1976
Продолжительность: 03:32:06 (01:15:27 + 01:13:30 + 01:03:09)

Перевод: не требуется
Оригинальная аудиодорожка: русский
Cубтитры: нет

Режиссер: Владимир Басов

В ролях: Андрей Мягков, Андрей Ростоцкий, Валентина Титова, Олег Басилашвили, Владимир Басов, Василий Лановой, Пётр Щербаков, Сергей Иванов, Владимир Самойлов, Виктор Чекмарёв, Маргарита Криницына, Глеб Стриженов, Вадим Грачёв, Иван Рыжов, Федор Никитин, Игорь Безяев, Алексей Коняшин, Николай Сморчков, Михаил Селютин, Владимир Соколов, Дмитрий Орловский, Борислав Брондуков, Алексей Горячев, Виталий Максимов, Елена Судакова, Владимир Протасенко, Андрей Рабинович, Александр Савченко, Сергей Бачурский, Лев Перфилов, Василий Фущич, Александр Белина, Людмила Лобза, Юрий Мысенков, Агафья Болотова, Ада Волошина, Борис Минаев...

Описание: Фильм повествует об интеллигенции и революции в России, о жизни семьи офицеров Турбиных. Киев, зима 1918-1919 годов. Гражданская война. Власть в городе переходит от гетмана к Директории, от Петлюры - к большевикам. Турбиным и их знакомым приходится делать свой выбор. Полковник Алексей Турбин и его брат Николай остаются верными белому движению и мужественно отстаивают его, не щадя жизни. Муж Елены, урождённой Турбиной, Владимир Тальберг позорно бежит из города с отступающими германскими войсками. В это смутное время семья и близкие друзья собираются и отмечают Новый Год. В гости к ним приезжает странный и немного нелепый человек, дальний родственник Турбиных - Ларион Суржанский, Лариосик...





Исходник: 2хDVD9 R5
Тип релиза: DVDRip-AVC
Контейнер: MKV

Видео: 712->768x576 (4:3), 25 fps, H264 ~ 1512 kbps avg, 0.147 bit/pixel
Аудио: 48 kHz, Dolby Digital AC3 5.1, 448 kbps

Раздача от:
Общее
Полное имя : Dni.Turbinyh.1976.DVDRip-AVC_[New-team]_by_AVP_Studio.mkv
Формат : Matroska
Версия формата : Version 2
Размер файла : 886 Мбайт
Продолжительность : 1 ч. 3 м.
Общий поток : 1962 Кбит/сек
Дата кодирования : UTC 2014-09-30 07:50:21
Программа кодирования : mkvmerge v6.1.0 ('Old Devil') built on Mar 4 2013 09:10:42
Библиотека кодирования : libebml v1.3.0 + libmatroska v1.4.0

Видео
Идентификатор : 1
Формат : AVC
Формат/Информация : Advanced Video Codec
Профиль формата : High@L4.1
Параметр CABAC формата : Да
Параметр ReFrames формата : 8 кадров
Идентификатор кодека : V_MPEG4/ISO/AVC
Продолжительность : 1 ч. 3 м.
Битрейт : 1512 Кбит/сек
Ширина : 712 пикселей
Высота : 576 пикселей
Соотношение сторон : 4:3
Режим частоты кадров : Постоянный
Частота кадров : 25,000 кадров/сек
Цветовое пространство : YUV
Субдискретизация насыщенности : 4:2:0
Битовая глубина : 8 бит
Тип развёртки : Прогрессивная
Бит/(Пиксели*Кадры) : 0.147
Размер потока : 666 Мбайт (75%)
Библиотека кодирования : x264 core 138 r2356 a1d3d17
Настройки программы : cabac=1 / ref=8 / deblock=1:-2:-1 / analyse=0x3:0x113 / me=umh / subme=10 / psy=1 / psy_rd=1.00:0.05 / mixed_ref=1 / me_range=32 / chroma_me=1 / trellis=2 / 8x8dct=1 / cqm=0 / deadzone=21,11 / fast_pskip=0 / chroma_qp_offset=-3 / threads=6 / lookahead_threads=1 / sliced_threads=0 / nr=0 / decimate=0 / interlaced=0 / bluray_compat=0 / constrained_intra=0 / bframes=8 / b_pyramid=2 / b_adapt=2 / b_bias=0 / direct=3 / weightb=1 / open_gop=0 / weightp=2 / keyint=250 / keyint_min=25 / scenecut=40 / intra_refresh=0 / rc=2pass / mbtree=0 / bitrate=1512 / ratetol=1.0 / qcomp=0.60 / qpmin=0 / qpmax=69 / qpstep=4 / cplxblur=20.0 / qblur=0.5 / ip_ratio=1.40 / pb_ratio=1.30 / aq=1:1.00
Default : Да
Forced : Нет

Аудио
Идентификатор : 2
Формат : AC-3
Формат/Информация : Audio Coding 3
Расширение режима : CM (complete main)
Параметр Endianness формата : Big
Идентификатор кодека : A_AC3
Продолжительность : 1 ч. 3 м.
Вид битрейта : Постоянный
Битрейт : 448 Кбит/сек
Каналы : 6 каналов
Расположение каналов : Front: L C R, Side: L R, LFE
Частота : 48,0 КГц
Битовая глубина : 16 бит
Метод сжатия : С потерями
Размер потока : 202 Мбайт (23%)
Default : Да
Forced : Нет





   Похожие торренты   Торрент   Размер 
В этой теме нет новых непрочитанных сообщений. Дни Турбиных [01-03 из 03] (1976) DVDRip от New-Team

42 | 16

2.19 ГБ

В этой теме нет новых непрочитанных сообщений. Дни Турбиных [01-03 из 03] (1976) DVDRip от New-Team

38 | 17

2.91 ГБ

В этой теме нет новых непрочитанных сообщений. Дни Турбиных (1976) DVDRip | Реставрация

31 | 10

3.86 ГБ

В этой теме нет новых непрочитанных сообщений. Дни Турбиных (1976) DVDRip-AVC от ExKinoRay

423 | 29

3.78 ГБ

В этой теме нет новых непрочитанных сообщений. Дни Турбиных (1976) DVD9 | Реставрация

1 | 5

12.59 ГБ

В этой теме нет новых непрочитанных сообщений. Ты - мне, я - тебе (1976) DVDRip-AVC от New-Team

12 | 7

743.67 МБ

В этой теме нет новых непрочитанных сообщений. Ты - мне, я - тебе (1976) DVDRip от New-Team

7 | 8

744.73 МБ




Вы не можете начинать темы
Вы не можете отвечать на сообщения
Вы не можете редактировать свои сообщения
Вы не можете удалять свои сообщения
Вы не можете добавлять вложения

Перейти:  
Для Мосгорсуда, Роскомнадзора и рекламодателей: mosgorsud-torrent[собачка]yandex.ru
 Вход
ppkBB3cker v.2 © 2008-2014 @ PPK
[ Time : 0.041s | 16 Queries | GZIP : Off ]

Торрент трекер RUTOR.IN, Не можете зайти на rutor.org? Какой новый адрес рутор? Какое зеркало рутор? Не работает rutor.org и зеркала? Тогда наш торрент специально для вас. Rutor.in неофициальное зеркало rutor. В случае если у Вас заблокирован rutor или вдруг Вы не можете на него зайти, то Вы без труда сможете скачать бесплатно и без рекламы последние новинки кино, игр, сериалов и прочего у нас, на Rutor.in. Не нужно использовать прокси, чтобы зайти на рутор, достаточно воспользоваться нашим ресурсом. Все новые фильмы, игры, сериалы, книги и музыка за 2013 и 2014 годы через торрент бесплатно. Скачивайте фильмы в хорошем качестве, игры для пк, xbox, playstation без регистрации. У нас вы найдете новые Зарубежные сериалы и Русские сериалы 2013, 2014, 2015 годов. Оставайтесь с нами, качайте любимые фильмы, игры, сериалы, книги и музыку.