img image001 image001 image001 image001 image001 image001 image001 image001 image001 image001 image001 image001 image001 image001 image001

Planets Sun Sun Sun
Статистика раздачи
Автор: Nickolas3434 | Размер: 9.75 ГБ | Добавлен: 02 окт 2014
Раздают: 101    Качают: 54
Скачать торрент
Скачать торрент
Описание торрента

СообщениеДобавлено: 02 окт 2014 

Информация о фильме
Название: Подпольная Империя / Преступная империя
Оригинальное название: Boardwalk Empire
Год выхода: 2014
Жанр: Драма, криминал
Режиссер: Тимоти Ван Паттен, Аллен Коултер
В ролях: Стив Бушеми, Майкл Питт, Келли Макдоналд, Майкл Шеннон, Ши Уигхэм, Алекса Палладино, Майкл Стулбарг, Стивен Грэм, Винсент Пьяцца, Джек Хьюстон, Майкл К. Уильямс, Энтони Лакиура, Пол Спаркс, Гретхен Мол, Люси Галина, Джози Галина, Деклан Мактик, Рори Мактик, Брэйди Нун, Коннор Нун, Пас де ла Уэрта, Дэбни Коулмэн, Чарли Кокс, Анатол Юсеф, Виктор Верхак, Роберт Клохесси, Кевин О’Рурк, Хезер Линд, Уильям Хилл, Адам Муччи, Эдвард МакГинти, Бобби Каннавейл, Грег Антоначчи, Жаклин Пеннвилль, Пол Джуд Летерски

О фильме:
Последний сезон эпической гангстерской саги об Америке времен сухого закона. Прошло 7 лет с тех пор, как мы в последний раз видели Наки Томпсона. Великая Депрессия окончена. Наступили новые времена, и в них уже нет места непотопляемому королю Атлантик-Сити и его подпольной империи. Ему предстоит принять свой последний бой.
Внимание!!! В переводе присутствует ненормативная лексика!
Перевод Ю.Сербина осуществлен в рамках сервиса "Озвучивание". Спонсоры: kuryha, Loki1982, Juve, Kain_Rasiel, Confidence, hardkatok, ray_hollis, SckraT, JaSoN174, ochkarik1, Serg2002, aries17, kirusha27, ts7, melo.

Общее
Уникальный идентификатор : 180586389564650461645563832828568984416 (0x87DBAC6BE18B40E9990FFD9032A2DB60)
Полное имя : E:...Boardwalk.Empire.S05E01.720p.HDTV.DD5.1.x264-HDCLUB.mkv
Формат : Matroska
Версия формата : Version 2
Размер файла : 2,33 Гбайт
Продолжительность : 59 м.
Общий поток : 5574 Кбит/сек
Название фильма : Boardwalk.Empire.S05E01.720p.HDTV.DD5.1.x264-CasStudio
Дата кодирования : UTC 2014-09-11 05:59:33
Программа кодирования : mkvmerge v5.8.0 ('No Sleep / Pillow') built on Sep 2 2012 15:37:04
Библиотека кодирования : libebml v1.2.3 + libmatroska v1.3.0
DURATION : 00:57:07.056000000
NUMBER_OF_FRAMES : 842
NUMBER_OF_BYTES : 25238
_STATISTICS_WRITING_APP : mkvmerge v7.1.0 ('Good Love') 32bit built on Jul 27 2014 12:59:18
_STATISTICS_WRITING_DATE_UTC : 2014-09-09 10:29:52
_STATISTICS_TAGS : BPS DURATION NUMBER_OF_FRAMES NUMBER_OF_BYTES

Видео
Идентификатор : 1
Формат : AVC
Формат/Информация : Advanced Video Codec
Профиль формата : High@L4.1
Параметр CABAC формата : Да
Параметр ReFrames формата : 9 кадров
Режим смешивания : Header stripping
Идентификатор кодека : V_MPEG4/ISO/AVC
Продолжительность : 59 м.
Битрейт : 4311 Кбит/сек
Ширина : 1280 пикселей
Высота : 714 пикселей
Соотношение сторон : 16:9
Режим частоты кадров : Постоянный
Частота кадров : 23,976 кадра/сек
Цветовое пространство : YUV
Субдискретизация насыщенности : 4:2:0
Битовая глубина : 8 бит
Тип развёртки : Прогрессивная
Бит/(Пиксели*Кадры) : 0.197
Размер потока : 1,80 Гбайт (77%)
Библиотека кодирования : x264 core 142 r2453kMod ea0ca51
Настройки программы : cabac=1 / ref=9 / deblock=1:-3:-3 / analyse=0x3:0x113 / me=umh / subme=11 / psy=1 / fade_compensate=0.00 / psy_rd=1.00:0.05 / mixed_ref=1 / me_range=32 / chroma_me=1 / trellis=2 / 8x8dct=1 / cqm=0 / deadzone=21,11 / fast_pskip=0 / chroma_qp_offset=-4 / threads=12 / lookahead_threads=2 / sliced_threads=0 / nr=0 / decimate=1 / interlaced=0 / bluray_compat=0 / constrained_intra=0 / fgo=0 / bframes=9 / b_pyramid=2 / b_adapt=2 / b_bias=0 / direct=3 / weightb=1 / open_gop=0 / weightp=2 / keyint=230 / keyint_min=23 / scenecut=40 / intra_refresh=0 / rc_lookahead=40 / rc=crf / mbtree=0 / crf=17.0000 / qcomp=0.65 / qpmin=0 / qpmax=69 / qpstep=4 / vbv_maxrate=50000 / vbv_bufsize=62500 / crf_max=0.0 / nal_hrd=none / filler=0 / ip_ratio=1.40 / pb_ratio=1.30 / aq=3:0.85
Язык : English
Default : Да
Forced : Нет
DURATION : 00:59:52.047000000
NUMBER_OF_FRAMES : 86123
NUMBER_OF_BYTES : 1985196490
_STATISTICS_WRITING_APP : mkvmerge v7.1.0 ('Good Love') 32bit built on Jul 27 2014 12:59:18
_STATISTICS_WRITING_DATE_UTC : 2014-09-09 10:29:52
_STATISTICS_TAGS : BPS DURATION NUMBER_OF_FRAMES NUMBER_OF_BYTES

Аудио #1
Идентификатор : 2
Формат : AC-3
Формат/Информация : Audio Coding 3
Расширение режима : CM (complete main)
Параметр Endianness формата : Big
Режим смешивания : Header stripping
Идентификатор кодека : A_AC3
Продолжительность : 59 м.
Вид битрейта : Постоянный
Битрейт : 384 Кбит/сек
Каналы : 6 каналов
Расположение каналов : Front: L C R, Side: L R, LFE
Частота : 48,0 КГц
Битовая глубина : 16 бит
Метод сжатия : С потерями
Размер потока : 164 Мбайт (7%)
Язык : Russian
Default : Нет
Forced : Нет

Аудио #2
Идентификатор : 3
Формат : AC-3
Формат/Информация : Audio Coding 3
Расширение режима : CM (complete main)
Параметр Endianness формата : Big
Режим смешивания : Header stripping
Идентификатор кодека : A_AC3
Продолжительность : 59 м.
Вид битрейта : Постоянный
Битрейт : 384 Кбит/сек
Каналы : 6 каналов
Расположение каналов : Front: L C R, Side: L R, LFE
Частота : 48,0 КГц
Битовая глубина : 16 бит
Метод сжатия : С потерями
Размер потока : 164 Мбайт (7%)
Заголовок : DD 5.1 Amedia
Язык : Russian
Default : Да
Forced : Нет

Аудио #3
Идентификатор : 4
Формат : AC-3
Формат/Информация : Audio Coding 3
Расширение режима : CM (complete main)
Параметр Endianness формата : Big
Режим смешивания : Header stripping
Идентификатор кодека : A_AC3
Продолжительность : 59 м.
Вид битрейта : Постоянный
Битрейт : 384 Кбит/сек
Каналы : 2 канала
Расположение каналов : Front: L R
Частота : 48,0 КГц
Битовая глубина : 16 бит
Метод сжатия : С потерями
Размер потока : 164 Мбайт (7%)
Заголовок : DD 5.1 Original
Язык : English
Default : Нет
Forced : Нет

Текст #1
Идентификатор : 5
Формат : UTF-8
Идентификатор кодека : S_TEXT/UTF8
Идентификатор кодека/Информация : UTF-8 Plain Text
Заголовок : Full Notabenoid
Язык : Russian
Default : Нет
Forced : Нет

Текст #2
Идентификатор : 6
Формат : UTF-8
Идентификатор кодека : S_TEXT/UTF8
Идентификатор кодека/Информация : UTF-8 Plain Text
Заголовок : Full
Язык : English
Default : Нет
Forced : Нет

Текст #3
Идентификатор : 7
Формат : UTF-8
Идентификатор кодека : S_TEXT/UTF8
Идентификатор кодека/Информация : UTF-8 Plain Text
Заголовок : Full SDH
Язык : English
Default : Нет
Forced : Нет



Страна: США
Продолжительность: 00:57:00
Перевод: Профессиональный многоголосый, АРК-ТВ по заказу Amedia
Авторский одноголосый Ю. Сербин|

Файл
Кодек: x264
Качество: HDTVRip 720p
Видео: 1280x714 at 23.976 fps, x264, ~4328 kbps avg
Звук:
Аудио#1: Russian: 48 kHz, AC3, 3/2 (L,C,R,l,r) + LFE ch, ~384.00 kbps avg |Одноголосый закадровый, Ю. Сербин|
Аудио#2: Russian: 48 kHz, AC3, 3/2 (L,C,R,l,r) + LFE ch, ~384.00 kbps avg |Многоголосый закадровый, АРК-ТВ по заказу Amedia| 1-2 серии
Аудио#3: English: 48 kHz, AC3, 3/2 (L,C,R,l,r) + LFE ch, ~384.00 kbps avg
Субтитры: Russian (Notabenoid), English 1-2 серии



Релиз от:



   Похожие торренты   Торрент   Размер 
В этой теме нет новых непрочитанных сообщений. Подпольная Империя / Преступная империя / Boardwalk Empire [05x01-03] (2014) HDTVRip 720p от HDClub | Amedia, Сербин

116 | 35

7.43 ГБ

В этой теме нет новых непрочитанных сообщений. Подпольная Империя / Преступная империя / Boardwalk Empire [05x01-02] (2014) HDTVRip 720p от HDClub | Amedia, Сербин

47 | 32

5.18 ГБ

В этой теме нет новых непрочитанных сообщений. Подпольная Империя / Преступная империя / Boardwalk Empire [05x01-03] (2014) HDTVRip от CasStudio | Amedia

3 | 15

3.45 ГБ

В этой теме нет новых непрочитанных сообщений. Подпольная империя / Преступная империя / Империя порока / Boardwalk Empire [S02] (2011) HDTVRip 720p | Сербин

66 | 31

26.24 ГБ

В этой теме нет новых непрочитанных сообщений. Подпольная Империя / Boardwalk Empire [05x01-05 из 08] (2014) HDTVRip-AVC | Amedia, Сербин

35 | 49

4.85 ГБ

В этой теме нет новых непрочитанных сообщений. Подпольная Империя / Boardwalk Empire [05x01-06 из 08] (2014) HDTVRip-AVC | Amedia, Сербин

12 | 15

5.73 ГБ

В этой теме нет новых непрочитанных сообщений. Подпольная Империя / Boardwalk Empire [05x01-07 из 08] (2014) HDTVRip-AVC | Amedia, Сербин

105 | 90

6.61 ГБ




Вы не можете начинать темы
Вы не можете отвечать на сообщения
Вы не можете редактировать свои сообщения
Вы не можете удалять свои сообщения
Вы не можете добавлять вложения

Перейти:  
Для Мосгорсуда, Роскомнадзора и рекламодателей: mosgorsud-torrent[собачка]yandex.ru
 Вход
ppkBB3cker v.2 © 2008-2014 @ PPK
[ Time : 0.064s | 15 Queries | GZIP : Off ]

Торрент трекер RUTOR.IN, Не можете зайти на rutor.org? Какой новый адрес рутор? Какое зеркало рутор? Не работает rutor.org и зеркала? Тогда наш торрент специально для вас. Rutor.in неофициальное зеркало rutor. В случае если у Вас заблокирован rutor или вдруг Вы не можете на него зайти, то Вы без труда сможете скачать бесплатно и без рекламы последние новинки кино, игр, сериалов и прочего у нас, на Rutor.in. Не нужно использовать прокси, чтобы зайти на рутор, достаточно воспользоваться нашим ресурсом. Все новые фильмы, игры, сериалы, книги и музыка за 2013 и 2014 годы через торрент бесплатно. Скачивайте фильмы в хорошем качестве, игры для пк, xbox, playstation без регистрации. У нас вы найдете новые Зарубежные сериалы и Русские сериалы 2013, 2014, 2015 годов. Оставайтесь с нами, качайте любимые фильмы, игры, сериалы, книги и музыку.