img image001 image001 image001 image001 image001 image001 image001 image001 image001 image001 image001 image001 image001 image001 image001

Planets Sun Sun Sun
Статистика раздачи
Автор: Nickolas3434 | Размер: 2.97 ГБ | Добавлен: 03 окт 2014
Раздают: 100    Качают: 74
Скачать торрент
Скачать торрент
Описание торрента

СообщениеДобавлено: 03 окт 2014 

Информация о фильме
Название: Черный Список
Оригинальное название: The Blacklist
Год выхода: 2014
Жанр: Драма, криминал, боевик, триллер, детектив
Режиссер: Джо Карнахан
В ролях: Джеймс Спэйдер, Меган Бун, Диего Клаттенхофф, Гарри Дж. Ленникс, Райан Игголд, Ильфенеш Хадера, Джессика Ши Элверсон, Чарльз Бэйкер, Дельфина Белль, Ник Блеймаер, Парминдер К. Награ

О фильме:
Один из самых разыскиваемых беглецов ФБР в исполнении Джеймса Спейдера («Секс, ложь и видео», «Практика») неожиданно добровольно сдаётся властям. Самодовольный преступник-хитрец начинает играть с ФБР в каверзную многоходовую игру: он обещает помочь федералам поймать опаснейших преступников Америки при условии, что с ним будет работать неопытная сотрудница Лиз Кин. ФБР в лице Гарри Ленникса соглашается на странную сделку не без непредсказуемых последствий.
01. Лорд Балтимор / Lord Baltimore
General
Unique ID : 268825184142844838746379363362966753327 (0xCA3DD8E1BEFEDB0D1A0DABC3FF96502F)
Complete name :/The.Blacklist.S02.720p.WEB-DL.Rus.Eng/The.Blacklist.S02E01.720p.WEB-DL.Rus.Eng.mkv
Format : Matroska
Format version : Version 4 / Version 2
File size : 1.47 GiB
Duration : 42mn 54s
Overall bit rate : 4 893 Kbps
Movie name : The Blacklist 2x01 (2014)
Encoded date : UTC 2014-09-24 23:49:44
Writing application : mkvmerge v6.9.1 ('Blue Panther') 64bit built on Apr 21 2014 16:21:33
Writing library : libebml v1.3.0 + libmatroska v1.4.1

Video
ID : 1
Format : AVC
Format/Info : Advanced Video Codec
Format profile : High@L3.1
Format settings, CABAC : No
Format settings, ReFrames : 2 frames
Codec ID : V_MPEG4/ISO/AVC
Duration : 42mn 54s
Bit rate : 4 027 Kbps
Width : 1 280 pixels
Height : 718 pixels
Display aspect ratio : 16:9
Frame rate mode : Constant
Frame rate : 23.976 fps
Color space : YUV
Chroma subsampling : 4:2:0
Bit depth : 8 bits
Scan type : Progressive
Bits/(Pixel*Frame) : 0.183
Stream size : 1.21 GiB (82%)
Title : The Blacklist 2x01 (2014)
Language : English
Default : Yes
Forced : No
Color primaries : BT.709
Transfer characteristics : BT.709
Matrix coefficients : BT.709

Audio #1
ID : 2
Format : AC-3
Format/Info : Audio Coding 3
Mode extension : CM (complete main)
Format settings, Endianness : Big
Codec ID : A_AC3
Duration : 42mn 54s
Bit rate mode : Constant
Bit rate : 384 Kbps
Channel(s) : 6 channels
Channel positions : Front: L C R, Side: L R, LFE
Sampling rate : 48.0 KHz
Bit depth : 16 bits
Compression mode : Lossy
Stream size : 118 MiB (8%)
Title : LostFilm
Language : Russian
Default : Yes
Forced : No

Audio #2
ID : 3
Format : AC-3
Format/Info : Audio Coding 3
Mode extension : CM (complete main)
Format settings, Endianness : Big
Codec ID : A_AC3
Duration : 42mn 54s
Bit rate mode : Constant
Bit rate : 384 Kbps
Channel(s) : 6 channels
Channel positions : Front: L C R, Side: L R, LFE
Sampling rate : 48.0 KHz
Bit depth : 16 bits
Compression mode : Lossy
Stream size : 118 MiB (8%)
Title : English
Language : English
Default : No
Forced : No

Text #1
ID : 4
Format : UTF-8
Codec ID : S_TEXT/UTF8
Codec ID/Info : UTF-8 Plain Text
Title : Russian Sub
Language : Russian
Default : No
Forced : No

Text #2
ID : 5
Format : UTF-8
Codec ID : S_TEXT/UTF8
Codec ID/Info : UTF-8 Plain Text
Title : English Sub
Language : English
Default : No
Forced : No
Звук LostFilm 5.1 — k-marat-s. Русские субтитры — BS666.


Страна: США
Продолжительность: 1 x ~ 00:43:00
Перевод: профессиональный (многоголосый, закадровый) - LostFilm

Файл
Кодек: x264
Качество: WEB-DL 720p
Видео: MPEG-4 AVC, 4000 Кбит/с, 1280x718, 23.976 кадр/с
Звук: Русский, английский (AC3, 6 ch, 384 Кбит/с)
Субтитры: Русские, английские




   Похожие торренты   Торрент   Размер 
В этой теме нет новых непрочитанных сообщений. Черный Список / The Blacklist [02x01 из 22] (2014) WEB-DL 720p | LostFilm

136 | 17

1.47 ГБ

В этой теме нет новых непрочитанных сообщений. Черный Список / The Blacklist [02x01 из 22] (2014) WEB-DL 1080p | LostFilm

46 | 9

1.72 ГБ

В этой теме нет новых непрочитанных сообщений. Черный Список / The Blacklist [02x01-13 из 22] (2014) WEB-DLRip | LostFilm

184 | 283

5.14 ГБ

В этой теме нет новых непрочитанных сообщений. Черный Список / The Blacklist [02x01-02 из 22] (2014) WEB-DLRip | LostFilm

459 | 196

966.96 МБ

В этой теме нет новых непрочитанных сообщений. Черный Список / The Blacklist [02x01 из 22] (2014) WEB-DLRip | LostFilm

550 | 33

528.45 МБ

В этой теме нет новых непрочитанных сообщений. Черный Список / The Blacklist [02x01-02 из 22] (2014) WEB-DL 1080p | LostFilm

26 | 23

3.4 ГБ

В этой теме нет новых непрочитанных сообщений. Черный Список / The Blacklist [02x01-13 из 22] (2014-2015) WEB-DLRip 1080p | LostFilm

113 | 83

23.49 ГБ




Вы не можете начинать темы
Вы не можете отвечать на сообщения
Вы не можете редактировать свои сообщения
Вы не можете удалять свои сообщения
Вы не можете добавлять вложения

Перейти:  
Для Мосгорсуда, Роскомнадзора и рекламодателей: mosgorsud-torrent[собачка]yandex.ru
 Вход
ppkBB3cker v.2 © 2008-2014 @ PPK
[ Time : 0.040s | 17 Queries | GZIP : Off ]

Торрент трекер RUTOR.IN, Не можете зайти на rutor.org? Какой новый адрес рутор? Какое зеркало рутор? Не работает rutor.org и зеркала? Тогда наш торрент специально для вас. Rutor.in неофициальное зеркало rutor. В случае если у Вас заблокирован rutor или вдруг Вы не можете на него зайти, то Вы без труда сможете скачать бесплатно и без рекламы последние новинки кино, игр, сериалов и прочего у нас, на Rutor.in. Не нужно использовать прокси, чтобы зайти на рутор, достаточно воспользоваться нашим ресурсом. Все новые фильмы, игры, сериалы, книги и музыка за 2013 и 2014 годы через торрент бесплатно. Скачивайте фильмы в хорошем качестве, игры для пк, xbox, playstation без регистрации. У нас вы найдете новые Зарубежные сериалы и Русские сериалы 2013, 2014, 2015 годов. Оставайтесь с нами, качайте любимые фильмы, игры, сериалы, книги и музыку.