img image001 image001 image001 image001 image001 image001 image001 image001 image001 image001 image001 image001 image001 image001 image001

Planets Sun Sun Sun
Статистика раздачи
Автор: Nickolas3434 | Размер: 3.45 ГБ | Добавлен: 04 окт 2014
Раздают: 3    Качают: 15
Скачать торрент
Скачать торрент
Описание торрента

СообщениеДобавлено: 04 окт 2014 

Информация о фильме
Название: Подпольная Империя / Преступная империя
Оригинальное название: Boardwalk Empire
Год выхода: 2014
Жанр: Драма, криминал
Режиссер: Тимоти Ван Паттен, Аллен Коултер
В ролях: Стив Бушеми, Майкл Питт, Келли Макдоналд, Майкл Шеннон, Ши Уигхэм, Алекса Палладино, Майкл Стулбарг, Стивен Грэм, Винсент Пьяцца, Джек Хьюстон, Майкл К. Уильямс, Энтони Лакиура, Пол Спаркс, Гретхен Мол, Люси Галина, Джози Галина, Деклан Мактик, Рори Мактик, Брэйди Нун, Коннор Нун, Пас де ла Уэрта, Дэбни Коулмэн, Чарли Кокс, Анатол Юсеф, Виктор Верхак, Роберт Клохесси, Кевин О’Рурк, Хезер Линд, Уильям Хилл, Адам Муччи, Эдвард МакГинти, Бобби Каннавейл, Грег Антоначчи, Жаклин Пеннвилль, Пол Джуд Летерски

О фильме:
Последний сезон эпической гангстерской саги об Америке времен сухого закона. Прошло 7 лет с тех пор, как мы в последний раз видели Наки Томпсона. Великая Депрессия окончена. Наступили новые времена, и в них уже нет места непотопляемому королю Атлантик-Сити и его подпольной империи. Ему предстоит принять свой последний бой.


Общее
Полное имя : Boardwalk Empire Season 5 CasStudio.TVBoardwalk.Empire.s05e01.rus.eng.CasStudio.TV.avi
Формат : AVI
Формат/Информация : Audio Video Interleave
Размер файла : 1,16 Гбайт
Продолжительность : 59 м.
Общий поток : 2782 Кбит/сек
Программа кодирования : VirtualDubMod 1.5.10.2 (build 2540/release)
Библиотека кодирования : VirtualDubMod build 2540/release

Видео
Идентификатор : 0
Формат : MPEG-4 Visual
Профиль формата : Advanced Simple@L5
Параметр BVOP формата : 1
Параметр QPel формата : Нет
Параметр GMC формата : Без точки перехода
Параметр матрицы формата : Default (MPEG)
Идентификатор кодека : XVID
Идентификатор кодека/Подсказка : XviD
Продолжительность : 59 м.
Битрейт : 1893 Кбит/сек
Ширина : 720 пикселей
Высота : 400 пикселей
Соотношение сторон : 16:9
Частота кадров : 23,976 кадра/сек
Цветовое пространство : YUV
Субдискретизация насыщенности : 4:2:0
Битовая глубина : 8 бит
Тип развёртки : Прогрессивная
Метод сжатия : С потерями
Бит/(Пиксели*Кадры) : 0.274
Размер потока : 811 Мбайт (68%)
Библиотека кодирования : XviD 65

Аудио #1
Идентификатор : 1
Формат : AC-3
Формат/Информация : Audio Coding 3
Расширение режима : CM (complete main)
Параметр Endianness формата : Big
Идентификатор кодека : 2000
Продолжительность : 59 м.
Вид битрейта : Постоянный
Битрейт : 384 Кбит/сек
Каналы : 6 каналов
Расположение каналов : Front: L C R, Side: L R, LFE
Частота : 48,0 КГц
Битовая глубина : 16 бит
Метод сжатия : С потерями
Размер потока : 164 Мбайт (14%)
Выравнивание : Разделение по промежуткам

Аудио #2
Идентификатор : 2
Формат : AC-3
Формат/Информация : Audio Coding 3
Расширение режима : CM (complete main)
Параметр Endianness формата : Big
Идентификатор кодека : 2000
Продолжительность : 59 м.
Вид битрейта : Постоянный
Битрейт : 384 Кбит/сек
Каналы : 6 канала
Расположение каналов : Front: L R
Частота : 48,0 КГц
Битовая глубина : 16 бит
Метод сжатия : С потерями
Размер потока : 164 Мбайт (14%)
Выравнивание : Разделение по промежуткам


Страна: США
Продолжительность: ~ 00:57:00
Перевод: Профессиональный многоголосый, АРК-ТВ по заказу Amedia

Файл
Кодек: XviD
Качество: HDTVRip
Видео: ~ 2000 Кбит/с, 720x400, 23.976 кадр/с
Звук:
Аудио#1: Russian: 48 kHz, AC3, 3/2 (L,C,R,l,r) + LFE ch, ~384.00 kbps avg |Многоголосый закадровый, АРК-ТВ по заказу Amedia|
Аудио#2: English: 48 kHz, AC3, 3/2 (L,C,R,l,r) + LFE ch, ~384.00 kbps avg
Субтитры: Russian (Notabenoid), English 1-2 серии






Релиз от:



   Похожие торренты   Торрент   Размер 
В этой теме нет новых непрочитанных сообщений. Подпольная Империя / Преступная империя / Boardwalk Empire [05x01-02] (2014) HDTVRip 720p от HDClub | Amedia, Сербин

47 | 32

5.18 ГБ

В этой теме нет новых непрочитанных сообщений. Подпольная Империя / Преступная империя / Boardwalk Empire [05x01-03] (2014) HDTVRip 720p от HDClub | Amedia, Сербин

116 | 35

7.43 ГБ

В этой теме нет новых непрочитанных сообщений. Подпольная Империя / Преступная империя / Boardwalk Empire [05x01-04] (2014) HDTVRip 720p от HDClub | Amedia, Сербин

101 | 54

9.75 ГБ

В этой теме нет новых непрочитанных сообщений. Подпольная империя / Преступная империя / Империя порока / Boardwalk Empire [S02] (2011) HDTVRip 720p | Сербин

66 | 31

26.24 ГБ

В этой теме нет новых непрочитанных сообщений. Подпольная Империя / Boardwalk Empire [05x01-03 из 08] (2014) HDTVRip-AVC | Amedia

18 | 162

2.63 ГБ

В этой теме нет новых непрочитанных сообщений. Подпольная Империя / Boardwalk Empire [05x01-02] (2014) HDTVRip-AVC | Amedia

7 | 8

1.76 ГБ

В этой теме нет новых непрочитанных сообщений. Подпольная Империя / Boardwalk Empire [05x01-07 из 08] (2014) HDTVRip-AVC | Amedia, Сербин

105 | 90

6.61 ГБ




Вы не можете начинать темы
Вы не можете отвечать на сообщения
Вы не можете редактировать свои сообщения
Вы не можете удалять свои сообщения
Вы не можете добавлять вложения

Перейти:  
Для Мосгорсуда, Роскомнадзора и рекламодателей: mosgorsud-torrent[собачка]yandex.ru
 Вход
ppkBB3cker v.2 © 2008-2014 @ PPK
[ Time : 0.040s | 19 Queries | GZIP : Off ]

Торрент трекер RUTOR.IN, Не можете зайти на rutor.org? Какой новый адрес рутор? Какое зеркало рутор? Не работает rutor.org и зеркала? Тогда наш торрент специально для вас. Rutor.in неофициальное зеркало rutor. В случае если у Вас заблокирован rutor или вдруг Вы не можете на него зайти, то Вы без труда сможете скачать бесплатно и без рекламы последние новинки кино, игр, сериалов и прочего у нас, на Rutor.in. Не нужно использовать прокси, чтобы зайти на рутор, достаточно воспользоваться нашим ресурсом. Все новые фильмы, игры, сериалы, книги и музыка за 2013 и 2014 годы через торрент бесплатно. Скачивайте фильмы в хорошем качестве, игры для пк, xbox, playstation без регистрации. У нас вы найдете новые Зарубежные сериалы и Русские сериалы 2013, 2014, 2015 годов. Оставайтесь с нами, качайте любимые фильмы, игры, сериалы, книги и музыку.
cron