img image001 image001 image001 image001 image001 image001 image001 image001 image001 image001 image001 image001 image001 image001 image001

Planets Sun Sun Sun
Статистика раздачи
Автор: Nickolas3434 | Размер: 4.18 ГБ | Добавлен: 05 окт 2014
Раздают: 12    Качают: 9
Скачать торрент
Скачать торрент
Описание торрента

СообщениеДобавлено: 05 окт 2014 

Информация о фильме
Название: Номер один господин Кхан
Оригинальное название: Citizen Khan
Год выхода: 2012
Жанр: Комедия
Режиссер: Бен Фуллер, Ник Вуд
В ролях: Шобу Капур, Ниш Натвани, Феликс Декстер, Харви Вирди, Крис Маршалл, Мэттью Коттл

О фильме:
Пакистанский британец мистер Кхан — типичный глава патриархальной семьи и лидер мусульманской общины в Спаркхилле. Каждый день ему приходится находить общий язык с белым настоятелем мечети и заботиться о своем шумном семействе. И хотя он уверен, что все держит под контролем, на самом деле вся ответственность, хлопоты и хозяйство лежат на его жене.
Запись и сведение: Beer kolesik Drinkers
General
Unique ID : 217531499767102724233310260649560999500 (0xA3A70AFD2032D413B45F4899B161864C)
Complete name : D:Citizen.Khan.S01.720p.HDTV.x264.Rus.Eng-BkDCitizen.Khan.s01e01.720p.HDTV.x264.Rus.Eng-BkD.mkv
Format : Matroska
Format version : Version 4 / Version 2
File size : 670 MiB
Duration : 28mn 11s
Overall bit rate : 3 323 Kbps
Movie name : by Beer kolesik Drinkers
Encoded date : UTC 2014-10-02 13:44:10
Writing application : mkvmerge v7.0.0 ('Where We Going') 32bit built on Jun 9 2014 15:08:34
Writing library : libebml v1.3.0 + libmatroska v1.4.1
_STATISTICS_WRITING_APP : mkvmerge v7.0.0 ('Where We Going') 32bit built on Jun 9 2014 15:08:34
_STATISTICS_WRITING_DATE_UTC : 2014-10-02 13:44:10
_STATISTICS_TAGS : BPS DURATION NUMBER_OF_FRAMES NUMBER_OF_BYTES
DURATION : 00:28:11.680000000
NUMBER_OF_FRAMES : 52865
NUMBER_OF_BYTES : 40600320

Video
ID : 1
Format : AVC
Format/Info : Advanced Video Codec
Format profile : High@L4.1
Format settings, CABAC : Yes
Format settings, ReFrames : 5 frames
Codec ID : V_MPEG4/ISO/AVC
Duration : 28mn 11s
Bit rate : 2 873 Kbps
Width : 1 280 pixels
Height : 720 pixels
Display aspect ratio : 16:9
Frame rate mode : Constant
Frame rate : 25.000 fps
Color space : YUV
Chroma subsampling : 4:2:0
Bit depth : 8 bits
Scan type : Progressive
Bits/(Pixel*Frame) : 0.125
Stream size : 579 MiB (86%)
Writing library : x264 core 125 r2208 d9d2288
Encoding settings : cabac=1 / ref=5 / deblock=1:0:0 / analyse=0x3:0x113 / me=umh / subme=8 / psy=1 / psy_rd=1.00:0.00 / mixed_ref=1 / me_range=16 / chroma_me=1 / trellis=1 / 8x8dct=1 / cqm=0 / deadzone=21,11 / fast_pskip=1 / chroma_qp_offset=-2 / threads=18 / lookahead_threads=3 / sliced_threads=0 / nr=0 / decimate=1 / interlaced=0 / bluray_compat=0 / constrained_intra=0 / bframes=3 / b_pyramid=2 / b_adapt=2 / b_bias=0 / direct=3 / weightb=1 / open_gop=0 / weightp=2 / keyint=250 / keyint_min=25 / scenecut=40 / intra_refresh=0 / rc_lookahead=50 / rc=crf / mbtree=1 / crf=19.0 / qcomp=0.60 / qpmin=0 / qpmax=69 / qpstep=4 / ip_ratio=1.40 / aq=1:1.00
Language : English
Default : Yes
Forced : No
_STATISTICS_WRITING_APP : mkvmerge v7.0.0 ('Where We Going') 32bit built on Jun 9 2014 15:08:34
_STATISTICS_WRITING_DATE_UTC : 2014-10-02 13:44:10
_STATISTICS_TAGS : BPS DURATION NUMBER_OF_FRAMES NUMBER_OF_BYTES
DURATION : 00:28:11.600000000
NUMBER_OF_FRAMES : 42290
NUMBER_OF_BYTES : 621078894

Audio #1
ID : 2
Format : AC-3
Format/Info : Audio Coding 3
Mode extension : CM (complete main)
Format settings, Endianness : Big
Codec ID : A_AC3
Duration : 28mn 11s
Bit rate mode : Constant
Bit rate : 192 Kbps
Channel(s) : 2 channels
Channel positions : Front: L R
Sampling rate : 48.0 KHz
Bit depth : 16 bits
Compression mode : Lossy
Stream size : 38.7 MiB (6%)
Title : Комедия тв
Language : Russian
Default : Yes
Forced : No
_STATISTICS_WRITING_APP : mkvmerge v7.0.0 ('Where We Going') 32bit built on Jun 9 2014 15:08:34
_STATISTICS_WRITING_DATE_UTC : 2014-10-02 13:44:10
_STATISTICS_TAGS : BPS DURATION NUMBER_OF_FRAMES NUMBER_OF_BYTES
DURATION : 00:28:11.616000000
NUMBER_OF_FRAMES : 52863
NUMBER_OF_BYTES : 40598784

Audio #2
ID : 3
Format : AC-3
Format/Info : Audio Coding 3
Mode extension : CM (complete main)
Format settings, Endianness : Big
Codec ID : A_AC3
Duration : 28mn 11s
Bit rate mode : Constant
Bit rate : 192 Kbps
Channel(s) : 2 channels
Channel positions : Front: L R
Sampling rate : 48.0 KHz
Bit depth : 16 bits
Compression mode : Lossy
Stream size : 38.7 MiB (6%)
Language : English
Default : No
Forced : No


Страна: Великобритания
Продолжительность: 6 x ~ 00:28:00
Перевод: Профессиональный (двухголосый закадровый) [Комедия ТВ (ТПО РедМедиа)]

Файл
Кодек: x264
Качество: HDTVRip 720p
Видео: ~ 2873 Кбит/с, 1280x720, 25 кадр/с
Звук: Русский, английский (AC3, 2 ch, 192 Кбит/с)




   Похожие торренты   Торрент   Размер 
В этой теме нет новых непрочитанных сообщений. Номер один господин Кхан / Citizen Khan [s01] (2012) HDTVRip 720p от CasStudio | Комедия ТВ

15 | 6

2.8 ГБ

В этой теме нет новых непрочитанных сообщений. Номер один господин Кхан / Citizen Khan [s02] (2013) HDTVRip 720p | Комедия ТВ

3 | 3

5.69 ГБ

В этой теме нет новых непрочитанных сообщений. Номер один господин Кхан / Citizen Khan [s02] (2013) HDTVRip от CasStudio | Комедия ТВ

26 | 3

3.33 ГБ

В этой теме нет новых непрочитанных сообщений. Меня зовут Кхан / My Name Is Khan (2010) BDRemux

3 | 9

42.55 ГБ

В этой теме нет новых непрочитанных сообщений. Меня зовут Кхан / My Name Is Khan (2010) BDRip 1080p

159 | 10

7.92 ГБ

В этой теме нет новых непрочитанных сообщений. Меня зовут Кхан / My Name Is Khan (2010) DVD5 vadi

11 | 4

4.37 ГБ

В этой теме нет новых непрочитанных сообщений. Меня зовут Кхан / My Name Is Khan (2010) HDRip от Scarabey | D

61 | 11

2.89 ГБ




Вы не можете начинать темы
Вы не можете отвечать на сообщения
Вы не можете редактировать свои сообщения
Вы не можете удалять свои сообщения
Вы не можете добавлять вложения

Перейти:  
Для Мосгорсуда, Роскомнадзора и рекламодателей: mosgorsud-torrent[собачка]yandex.ru
 Вход
ppkBB3cker v.2 © 2008-2014 @ PPK
[ Time : 0.052s | 17 Queries | GZIP : Off ]

Торрент трекер RUTOR.IN, Не можете зайти на rutor.org? Какой новый адрес рутор? Какое зеркало рутор? Не работает rutor.org и зеркала? Тогда наш торрент специально для вас. Rutor.in неофициальное зеркало rutor. В случае если у Вас заблокирован rutor или вдруг Вы не можете на него зайти, то Вы без труда сможете скачать бесплатно и без рекламы последние новинки кино, игр, сериалов и прочего у нас, на Rutor.in. Не нужно использовать прокси, чтобы зайти на рутор, достаточно воспользоваться нашим ресурсом. Все новые фильмы, игры, сериалы, книги и музыка за 2013 и 2014 годы через торрент бесплатно. Скачивайте фильмы в хорошем качестве, игры для пк, xbox, playstation без регистрации. У нас вы найдете новые Зарубежные сериалы и Русские сериалы 2013, 2014, 2015 годов. Оставайтесь с нами, качайте любимые фильмы, игры, сериалы, книги и музыку.
cron