img image001 image001 image001 image001 image001 image001 image001 image001 image001 image001 image001 image001 image001 image001 image001

Planets Sun Sun Sun
Статистика раздачи
Автор: Nickolas3434 | Размер: 2.8 ГБ | Добавлен: 05 окт 2014
Раздают: 15    Качают: 6
Скачать торрент
Скачать торрент
Описание торрента

СообщениеДобавлено: 05 окт 2014 

Информация о фильме
Название: Номер один господин Кхан
Оригинальное название: Citizen Khan
Год выхода: 2012
Жанр: Комедия
Режиссер: Бен Фуллер, Ник Вуд
В ролях: Шобу Капур, Ниш Натвани, Феликс Декстер, Харви Вирди, Крис Маршалл, Мэттью Коттл

О фильме:
Пакистанский британец мистер Кхан — типичный глава патриархальной семьи и лидер мусульманской общины в Спаркхилле. Каждый день ему приходится находить общий язык с белым настоятелем мечети и заботиться о своем шумном семействе. И хотя он уверен, что все держит под контролем, на самом деле вся ответственность, хлопоты и хозяйство лежат на его жене.
Работа со звуком: Beer kolesik Drinkers
Рип: xironfs
Общее
Полное имя : Citizen Khan Season 1 CasStudio.TVCitizen.Khan.s01e02.rus.eng.CasStudio.TV.avi
Формат : AVI
Формат/Информация : Audio Video Interleave
Размер файла : 488 Мбайт
Продолжительность : 28 м.
Общий поток : 2399 Кбит/сек
Программа кодирования : VirtualDubModRus 1.5.10.2 (build 2542/release)
Библиотека кодирования : VirtualDubMod build 2542/release

Видео
Идентификатор : 0
Формат : MPEG-4 Visual
Профиль формата : Advanced Simple@L5
Параметр BVOP формата : 1
Параметр QPel формата : Нет
Параметр GMC формата : Без точки перехода
Параметр матрицы формата : Default (MPEG)
Идентификатор кодека : XVID
Идентификатор кодека/Подсказка : XviD
Продолжительность : 28 м.
Битрейт : 2000 Кбит/сек
Ширина : 720 пикселей
Высота : 400 пикселей
Соотношение сторон : 16:9
Частота кадров : 25,000 кадров/сек
Цветовое пространство : YUV
Субдискретизация насыщенности : 4:2:0
Битовая глубина : 8 бит
Тип развёртки : Прогрессивная
Метод сжатия : С потерями
Бит/(Пиксели*Кадры) : 0.278
Размер потока : 407 Мбайт (83%)
Библиотека кодирования : XviD 65

Аудио #1
Идентификатор : 1
Формат : AC-3
Формат/Информация : Audio Coding 3
Расширение режима : CM (complete main)
Параметр Endianness формата : Big
Идентификатор кодека : 2000
Продолжительность : 28 м.
Вид битрейта : Постоянный
Битрейт : 192 Кбит/сек
Каналы : 2 канала
Расположение каналов : Front: L R
Частота : 48,0 КГц
Битовая глубина : 16 бит
Метод сжатия : С потерями
Размер потока : 39,0 Мбайт (8%)
Выравнивание : Разделение по промежуткам
Продолжительность промежутка : 40 мс. (1,00 видеокадр)
Время предзагрузки промежутка : 500 мс.

Аудио #2
Идентификатор : 2
Формат : AC-3
Формат/Информация : Audio Coding 3
Расширение режима : CM (complete main)
Параметр Endianness формата : Big
Идентификатор кодека : 2000
Продолжительность : 28 м.
Вид битрейта : Постоянный
Битрейт : 192 Кбит/сек
Каналы : 2 канала
Расположение каналов : Front: L R
Частота : 48,0 КГц
Битовая глубина : 16 бит
Метод сжатия : С потерями
Размер потока : 39,0 Мбайт (8%)
Выравнивание : Разделение по промежуткам
Продолжительность промежутка : 40 мс. (1,00 видеокадр)
Время предзагрузки промежутка : 500 мс.


Страна: Великобритания
Продолжительность: 6 x ~ 00:28:00
Перевод: Профессиональный (двухголосый закадровый) [Комедия ТВ (ТПО РедМедиа)]

Файл
Кодек: XviD
Качество: HDTVRip 720p
Видео: ~ 2000 Кбит/с, 720x400, 25 кадр/с
Звук: Русский, английский (AC3, 2 ch, 192 Кбит/с)



Релиз от:



   Похожие торренты   Торрент   Размер 
В этой теме нет новых непрочитанных сообщений. Номер один господин Кхан / Citizen Khan [s02] (2013) HDTVRip от CasStudio | Комедия ТВ

26 | 3

3.33 ГБ

В этой теме нет новых непрочитанных сообщений. Номер один господин Кхан / Citizen Khan [s01] (2012) HDTVRip 720p | Комедия ТВ

12 | 9

4.18 ГБ

В этой теме нет новых непрочитанных сообщений. Номер один господин Кхан / Citizen Khan [s02] (2013) HDTVRip 720p | Комедия ТВ

3 | 3

5.69 ГБ

В этой теме нет новых непрочитанных сообщений. Меня зовут Кхан / My Name Is Khan (2010) BDRemux

3 | 9

42.55 ГБ

В этой теме нет новых непрочитанных сообщений. Меня зовут Кхан / My Name Is Khan (2010) HDRip от MediaClub | КПК

325 | 14

729.51 МБ

В этой теме нет новых непрочитанных сообщений. Меня зовут Кхан / My Name Is Khan (2010) HDRip от Scarabey | D

61 | 11

2.89 ГБ

В этой теме нет новых непрочитанных сообщений. Меня зовут Кхан / My Name Is Khan (2010) BDRip-AVC от MediaClub | D

39 | 13

4.3 ГБ




Вы не можете начинать темы
Вы не можете отвечать на сообщения
Вы не можете редактировать свои сообщения
Вы не можете удалять свои сообщения
Вы не можете добавлять вложения

Перейти:  
Для Мосгорсуда, Роскомнадзора и рекламодателей: mosgorsud-torrent[собачка]yandex.ru
 Вход
ppkBB3cker v.2 © 2008-2014 @ PPK
[ Time : 0.063s | 15 Queries | GZIP : Off ]

Торрент трекер RUTOR.IN, Не можете зайти на rutor.org? Какой новый адрес рутор? Какое зеркало рутор? Не работает rutor.org и зеркала? Тогда наш торрент специально для вас. Rutor.in неофициальное зеркало rutor. В случае если у Вас заблокирован rutor или вдруг Вы не можете на него зайти, то Вы без труда сможете скачать бесплатно и без рекламы последние новинки кино, игр, сериалов и прочего у нас, на Rutor.in. Не нужно использовать прокси, чтобы зайти на рутор, достаточно воспользоваться нашим ресурсом. Все новые фильмы, игры, сериалы, книги и музыка за 2013 и 2014 годы через торрент бесплатно. Скачивайте фильмы в хорошем качестве, игры для пк, xbox, playstation без регистрации. У нас вы найдете новые Зарубежные сериалы и Русские сериалы 2013, 2014, 2015 годов. Оставайтесь с нами, качайте любимые фильмы, игры, сериалы, книги и музыку.