img image001 image001 image001 image001 image001 image001 image001 image001 image001 image001 image001 image001 image001 image001 image001

Planets Sun Sun Sun
Статистика раздачи
Автор: Nickolas3434 | Размер: 28.81 ГБ | Добавлен: 09 окт 2014
Раздают: 215    Качают: 26
Скачать торрент
Скачать торрент
Описание торрента

СообщениеДобавлено: 09 окт 2014 

Информация о фильме
Название: Твин Пикс
Оригинальное название: Twin Peaks
Год выхода: 1990
Жанр: триллер, драма, криминал, детектив
Режиссер: Дэвид Линч, Дайан Китон, Джонатан Сэнгер
В ролях: Кайл МакЛахлан, Майкл Онткин, Шерил Ли, Лара Флинн Бойл, Шерилин Фенн, Рэй Уайз, Мигель Феррер, Дэвид Линч, Билли Зейн, Хезер Грэм, Мэдчен Эмик, Дэна Эшбрук, Ричард Беймер, Уоррен Фрост, Пегги Липтон, Джеймс Маршалл, Эверет МакГилл, Джек Нэнс, Джоан Чен, Кимми Робертсон, Майкл Хорс, Пайпер Лори, Гарри Гоаз, Эрик ДаРе, Уэнди Роби
Описание: В городке Твин Пикс ранним утром обнаружено завернутое в целлофан обнаженное тело молодой девушки по имени Лора Палмер. Чуть позже утром на границе штата находят еще одну ученицу из школы, где училась Лора, Ронетт Пуласки. Полуобнаженная, она брела по рельсам, плохо понимая, что происходит и где она находится. Для помощи в расследовании убийства в город прибывает специальный агент ФБР Дэйл Купер. Вскоре становится ясно – в этом городе многое совсем не так, как кажется на первый взгляд… За тихой размеренной жизнью провинциального города стоят интриги, ложь, насилие, а леса вокруг Твин Пикса хранят древнее зло… Но все же, кто убил Лору Палмер?

Выпущено: США
Продолжительность: 1 х 01:30:00, 2-8 x 00:47:00
Озвучивание: Профессиональное (многоголосое) [Sci-Fi /(ОРТ] + Авторское (одноголосое) [Ю. Сербин]
Файл
Формат: MKV
Качество: BDRip 1080p
Видео: 1900 kb/s, 720х544
Аудио 1: Русский (AC3, 2 ch, 192 Кбит/с) / Профессиональный многоголосый (Sci-Fi)
Аудио 2: Русский (AC3, 2 ch, 192 Кбит/с) / Профессиональный многоголосый (ОРТ)
Аудио 3: Русский (AC3, 2 ch, 448 Кбит/с) / Авторский одноголосый (Юрий Сербин)
Аудио 4: English, 48 kHz, Dolby Digital 5.1 @ 448 kbps
Размер: 28.81 Gb
Субтитры: Russian, English
Скачать: Сэмпл
00: Pilot
01: Traces to Nowhere
02: Zen, or the Skill to Catch a Killer
03: Rest in Pain
04: The One-Armed Man
05: Cooper's Dreams
06: Realization Time
07: The Last Evening

General
Unique ID : 214286535679814087895246425696186777657 (0xA13615E83576D67DA4BFE56B59B9C039)
Complete name : D:DownloadsTorrentTwin.Peaks.S01.1080p.BDRip.Rus.EngTwin.Peaks.S01E01.Pilot.1080p.BDRip.Rus.Eng.mkv
Format : Matroska
Format version : Version 4 / Version 2
File size : 6.41 GiB
Duration : 1h 34mn
Overall bit rate : 9 753 Kbps
Encoded date : UTC 2014-10-06 11:46:35
Writing application : mkvmerge v7.2.0 ('On Every Street') 32bit built on Sep 13 2014 15:42:11
Writing library : libebml v1.3.0 + libmatroska v1.4.1
DURATION : 01:29:13.138000000
NUMBER_OF_FRAMES : 1056
NUMBER_OF_BYTES : 35972
_STATISTICS_WRITING_APP : mkvmerge v7.2.0 ('On Every Street') 32bit built on Sep 13 2014 15:42:11
_STATISTICS_WRITING_DATE_UTC : 2014-10-06 11:46:35
_STATISTICS_TAGS : BPS DURATION NUMBER_OF_FRAMES NUMBER_OF_BYTES
Video
ID : 1
Format : AVC
Format/Info : Advanced Video Codec
Format profile : High@L4.1
Format settings, CABAC : Yes
Format settings, ReFrames : 5 frames
Codec ID : V_MPEG4/ISO/AVC
Bit rate : 8 472 Kbps
Width : 1 440 pixels
Height : 1 080 pixels
Display aspect ratio : 4:3
Frame rate mode : Variable
Original frame rate : 23.976 fps
Color space : YUV
Chroma subsampling : 4:2:0
Bit depth : 8 bits
Scan type : Progressive
Bits/(Pixel*Frame) : 0.227
Writing library : x264 core 142 r2431 ac76440
Encoding settings : cabac=1 / ref=5 / deblock=1:-2:-2 / analyse=0x3:0x113 / me=umh / subme=8 / psy=1 / psy_rd=1.00:0.00 / mixed_ref=1 / me_range=16 / chroma_me=1 / trellis=1 / 8x8dct=1 / cqm=0 / deadzone=21,11 / fast_pskip=1 / chroma_qp_offset=-2 / threads=12 / lookahead_threads=2 / sliced_threads=0 / nr=0 / decimate=1 / interlaced=0 / bluray_compat=0 / constrained_intra=0 / bframes=3 / b_pyramid=2 / b_adapt=2 / b_bias=0 / direct=3 / weightb=1 / open_gop=0 / weightp=2 / keyint=240 / keyint_min=24 / scenecut=40 / intra_refresh=0 / rc_lookahead=50 / rc=2pass / mbtree=1 / bitrate=8472 / ratetol=1.0 / qcomp=0.60 / qpmin=0 / qpmax=69 / qpstep=4 / cplxblur=20.0 / qblur=0.5 / ip_ratio=1.40 / aq=1:1.00
Language : English
Default : Yes
Forced : No
DURATION : 01:34:03.262000000
NUMBER_OF_FRAMES : 135303
NUMBER_OF_BYTES : 5974922181
_STATISTICS_WRITING_APP : mkvmerge v7.2.0 ('On Every Street') 32bit built on Sep 13 2014 15:42:11
_STATISTICS_WRITING_DATE_UTC : 2014-10-06 11:46:35
_STATISTICS_TAGS : BPS DURATION NUMBER_OF_FRAMES NUMBER_OF_BYTES
Audio #1
ID : 2
Format : AC-3
Format/Info : Audio Coding 3
Mode extension : CM (complete main)
Format settings, Endianness : Big
Codec ID : A_AC3
Duration : 1h 34mn
Bit rate mode : Constant
Bit rate : 192 Kbps
Channel(s) : 2 channels
Channel positions : Front: L R
Sampling rate : 48.0 KHz
Bit depth : 16 bits
Compression mode : Lossy
Stream size : 129 MiB (2%)
Title : Sci-Fi
Language : Russian
Default : Yes
Forced : No
Audio #2
ID : 3
Format : AC-3
Format/Info : Audio Coding 3
Mode extension : CM (complete main)
Format settings, Endianness : Big
Codec ID : A_AC3
Duration : 1h 34mn
Bit rate mode : Constant
Bit rate : 192 Kbps
Channel(s) : 2 channels
Channel positions : Front: L R
Sampling rate : 48.0 KHz
Bit depth : 16 bits
Compression mode : Lossy
Stream size : 129 MiB (2%)
Title : ОРТ
Language : Russian
Default : No
Forced : No
Audio #3
ID : 4
Format : AC-3
Format/Info : Audio Coding 3
Mode extension : CM (complete main)
Format settings, Endianness : Big
Codec ID : A_AC3
Duration : 1h 34mn
Bit rate mode : Constant
Bit rate : 448 Kbps
Channel(s) : 6 channels
Channel positions : Front: L C R, Side: L R, LFE
Sampling rate : 48.0 KHz
Bit depth : 16 bits
Compression mode : Lossy
Stream size : 301 MiB (5%)
Title : Юрий Сербин
Language : Russian
Default : No
Forced : No
Audio #4
ID : 5
Format : AC-3
Format/Info : Audio Coding 3
Mode extension : CM (complete main)
Format settings, Endianness : Big
Codec ID : A_AC3
Duration : 1h 34mn
Bit rate mode : Constant
Bit rate : 448 Kbps
Channel(s) : 6 channels
Channel positions : Front: L C R, Side: L R, LFE
Sampling rate : 48.0 KHz
Bit depth : 16 bits
Compression mode : Lossy
Stream size : 301 MiB (5%)
Language : English
Default : No
Forced : No
Text #1
ID : 6
Format : UTF-8
Codec ID : S_TEXT/UTF8
Codec ID/Info : UTF-8 Plain Text
Language : Russian
Default : No
Forced : No
Text #2
ID : 7
Format : UTF-8
Codec ID : S_TEXT/UTF8
Codec ID/Info : UTF-8 Plain Text
Language : English
Default : No
Forced : No




   Похожие торренты   Торрент   Размер 
В этой теме нет новых непрочитанных сообщений. Твин Пикс / Twin Peaks [S01] (1990) Blu-ray Remux 1080p

7 | 18

90.72 ГБ

В этой теме нет новых непрочитанных сообщений. Твин Пикс / Twin Peaks [S01-02] (1990-1991) BDRemux 1080p | P, A

8 | 13

322.77 ГБ

В этой теме нет новых непрочитанных сообщений. Твин Пикс / Twin Peaks [S01] (1990) BDRip

94 | 114

7.38 ГБ

В этой теме нет новых непрочитанных сообщений. Твин Пикс / Twin Peaks [s01] (1990) BDRip-AVC | TB-3, NovaMedia

86 | 31

10.56 ГБ

В этой теме нет новых непрочитанных сообщений. Твин Пикс / Twin Peaks [S01] (1990) BDRip 720p

30 | 34

35.35 ГБ

В этой теме нет новых непрочитанных сообщений. Твин Пикс / Twin Peaks [s01] (1990) BDRip-AVC (TB-3, NovaMedia)

17 | 12

10.02 ГБ

В этой теме нет новых непрочитанных сообщений. Твин Пикс / Twin Peaks [S01] (1990) BDRip-AVC | iPad

63 | 20

9.38 ГБ




Вы не можете начинать темы
Вы не можете отвечать на сообщения
Вы не можете редактировать свои сообщения
Вы не можете удалять свои сообщения
Вы не можете добавлять вложения

Перейти:  
Для Мосгорсуда, Роскомнадзора и рекламодателей: mosgorsud-torrent[собачка]yandex.ru
 Вход
ppkBB3cker v.2 © 2008-2014 @ PPK
[ Time : 0.066s | 16 Queries | GZIP : Off ]

Торрент трекер RUTOR.IN, Не можете зайти на rutor.org? Какой новый адрес рутор? Какое зеркало рутор? Не работает rutor.org и зеркала? Тогда наш торрент специально для вас. Rutor.in неофициальное зеркало rutor. В случае если у Вас заблокирован rutor или вдруг Вы не можете на него зайти, то Вы без труда сможете скачать бесплатно и без рекламы последние новинки кино, игр, сериалов и прочего у нас, на Rutor.in. Не нужно использовать прокси, чтобы зайти на рутор, достаточно воспользоваться нашим ресурсом. Все новые фильмы, игры, сериалы, книги и музыка за 2013 и 2014 годы через торрент бесплатно. Скачивайте фильмы в хорошем качестве, игры для пк, xbox, playstation без регистрации. У нас вы найдете новые Зарубежные сериалы и Русские сериалы 2013, 2014, 2015 годов. Оставайтесь с нами, качайте любимые фильмы, игры, сериалы, книги и музыку.
cron