img image001 image001 image001 image001 image001 image001 image001 image001 image001 image001 image001 image001 image001 image001 image001

Planets Sun Sun Sun
Статистика раздачи
Автор: Nickolas3434 | Размер: 84.39 ГБ | Добавлен: 09 окт 2014
Раздают: 12    Качают: 27
Скачать торрент
Скачать торрент
Описание торрента

СообщениеДобавлено: 09 окт 2014 

Информация о фильме
Название: Твин Пикс
Оригинальное название: Twin Peaks
Год выхода: 1990
Жанр: триллер, драма, криминал, детектив
Режиссер: Дэвид Линч, Марк Фрост
В ролях: Кайл МакЛоклен, Майкл Онткин, Шерил Ли, Лара Флинн Бойл, Шерилин Фенн, Рэй Уайз, Мигель Феррер, Дэвид Линч, Билли Зейн, Хэзер Грэм
Описание: История начинается с известия о находке обнаженного тела Лоры Палмер, «завернутого в полиэтилен» и выброшенного волнами на берег озера. В ходе расследования перед внимательными взглядами агента Купера, шерифа Трумана и его помощников проходят разные жители Твин Пикс. Постепенно зритель открывает для себя темную и страшную сторону жизни обитателей на первый взгляд тихого и мирного городка.

Выпущено: США
Продолжительность: 1 x ~90 минут + 21 x ~45 минут
Озвучивание: Авторский (одноголосый закадровый) Ю.Сербин
Файл
Формат: MKV
Качество: BDRip 720p
Видео: 960x720 at 23.976 fps, x264@L4.1 (dxva), crf17.5, ~8150 kbps avg
Аудио#1: Russian: 48 kHz, DTS, 3/2 (L,C,R,l,r) + LFE ch, ~1536.00 kbps avg |Одноголосый закадровый, Ю.Сербин|
Аудио#2: English: 48 kHz, DTS, 3/2 (L,C,R,l,r) + LFE ch, ~1536.00 kbps avg
Размер: 246.56 GB
Субтитры: Russian (Киномания), Russian (Оборотень БОБ - кроме эпизодов 19-20), English
Скачать: Сэмпл
Season 2, Episodes 1-22
01: May the Giant Be with You / Великан может быть с тобой
02: Coma / Кома
03: The Man Behind the Glass / Человек за стеклом
04: Laura's Secret Diary / Тайный дневник Лоры
05: The Orchid's Curse / Проклятие Орхидеи
06: Demons / Демоны
07: Lonely Souls / Одинокие души
08: Drive with a Dead Girl / Поездка с мёртвой девушкой
09: Arbitrary Law / Самосуд
10: Dispute Between Brothers / Спор между братьями
11: Masked Ball / Бал-маскарад
12: The Black Widow / Чёрная вдова
13: Checkmate / Шах и мат
14: Double Play / Двойная игра
15: Slaves and Masters / Рабы и хозяева
16: The Condemned Woman / Обречённая
17: Wounds and Scars / Раны и шрамы
18: On the Wings of Love / На крыльях любви
19: Variations and Relations / Перемены в расстановке сил
20: The Path to the Black Lodge / Тропа к Черному Вигваму
21: Miss Twin Peaks / Ночь решений
22: Beyond Life and Death / Между жизнью и смертью

Общее
Уникальный идентификатор : 205866521269725188636983466889000306797 (0x9AE073252D342EA4AC6523E91E28C86D)
Полное имя : I:Twin.Peaks.S02.720p.BluRay.Rus.Eng.HDCLUBTwin.Peaks.S02E01.720p.BluRay.Rus.Eng.HDCLUB.mkv
Формат : Matroska
Версия формата : Version 4 / Version 2
Размер файла : 7,24 Гбайт
Продолжительность : 1 ч. 34 м.
Общий поток : 11,0 Мбит/сек
Название фильма : Twin Peaks S02E01 - May the Giant Be with You (1990-09-30)
Дата кодирования : UTC 2014-08-31 13:45:08
Программа кодирования : mkvmerge v7.0.0 ('Where We Going') 32bit built on Jun 9 2014 15:08:34
Библиотека кодирования : libebml v1.3.0 + libmatroska v1.4.1
Видео
Идентификатор : 1
Формат : AVC
Формат/Информация : Advanced Video Codec
Профиль формата : High@L4.1
Параметр CABAC формата : Да
Параметр ReFrames формата : 12 кадров
Идентификатор кодека : V_MPEG4/ISO/AVC
Продолжительность : 1 ч. 34 м.
Битрейт : 7764 Кбит/сек
Ширина : 960 пикселей
Высота : 720 пикселей
Соотношение сторон : 4:3
Режим частоты кадров : Постоянный
Частота кадров : 23,976 кадра/сек
Цветовое пространство : YUV
Субдискретизация насыщенности : 4:2:0
Битовая глубина : 8 бит
Тип развёртки : Прогрессивная
Бит/(Пиксели*Кадры) : 0.468
Размер потока : 5,11 Гбайт (71%)
Заголовок : Release for HDCLUB
Библиотека кодирования : x264 core 133 r2334 a3ac64b
Настройки программы : cabac=1 / ref=12 / deblock=1:-3:-3 / analyse=0x3:0x133 / me=umh / subme=10 / psy=1 / psy_rd=1.10:0.00 / mixed_ref=1 / me_range=24 / chroma_me=1 / trellis=2 / 8x8dct=1 / cqm=0 / deadzone=21,11 / fast_pskip=0 / chroma_qp_offset=-2 / threads=12 / lookahead_threads=2 / sliced_threads=0 / nr=0 / decimate=0 / interlaced=0 / bluray_compat=0 / constrained_intra=0 / bframes=8 / b_pyramid=2 / b_adapt=2 / b_bias=0 / direct=3 / weightb=1 / open_gop=0 / weightp=2 / keyint=250 / keyint_min=23 / scenecut=40 / intra_refresh=0 / rc_lookahead=60 / rc=crf / mbtree=0 / crf=17.5 / qcomp=0.70 / qpmin=0 / qpmax=69 / qpstep=4 / vbv_maxrate=50000 / vbv_bufsize=62500 / crf_max=0.0 / nal_hrd=none / ip_ratio=1.30 / pb_ratio=1.20 / aq=1:0.70
Язык : English
Default : Да
Forced : Нет
Аудио #1
Идентификатор : 2
Формат : DTS
Формат/Информация : Digital Theater Systems
Режим : 16
Параметр Endianness формата : Big
Идентификатор кодека : A_DTS
Продолжительность : 1 ч. 34 м.
Вид битрейта : Постоянный
Битрейт : 1509 Кбит/сек
Каналы : 6 каналов
Расположение каналов : Front: L C R, Side: L R, LFE
Частота : 48,0 КГц
Битовая глубина : 24 бит
Метод сжатия : С потерями
Размер потока : 1017 Мбайт (14%)
Заголовок : DTS 5.1 @ 1536 kbps - Ю.Сербин
Язык : Russian
Default : Да
Forced : Нет
Аудио #2
Идентификатор : 3
Формат : DTS
Формат/Информация : Digital Theater Systems
Режим : 16
Параметр Endianness формата : Big
Идентификатор кодека : A_DTS
Продолжительность : 1 ч. 34 м.
Вид битрейта : Постоянный
Битрейт : 1509 Кбит/сек
Каналы : 6 каналов
Расположение каналов : Front: L C R, Side: L R, LFE
Частота : 48,0 КГц
Битовая глубина : 24 бит
Метод сжатия : С потерями
Размер потока : 1017 Мбайт (14%)
Заголовок : DTS 5.1 @ 1536 kbps
Язык : English
Default : Нет
Forced : Нет
Текст #1
Идентификатор : 4
Формат : UTF-8
Идентификатор кодека : S_TEXT/UTF8
Идентификатор кодека/Информация : UTF-8 Plain Text
Заголовок : Киномания
Язык : Russian
Default : Нет
Forced : Нет
Текст #2
Идентификатор : 5
Формат : UTF-8
Идентификатор кодека : S_TEXT/UTF8
Идентификатор кодека/Информация : UTF-8 Plain Text
Заголовок : Оборотень БОБ
Язык : Russian
Default : Нет
Forced : Нет
Текст #3
Идентификатор : 6
Формат : UTF-8
Идентификатор кодека : S_TEXT/UTF8
Идентификатор кодека/Информация : UTF-8 Plain Text
Язык : English
Default : Нет
Forced : Нет
Текст #4
Идентификатор : 7
Формат : UTF-8
Идентификатор кодека : S_TEXT/UTF8
Идентификатор кодека/Информация : UTF-8 Plain Text
Заголовок : SDH
Язык : English
Default : Нет
Forced : Нет
Меню
00:00:00.000 : en:Chapter 1
00:22:14.208 : en:Chapter 2
00:32:55.140 : en:Chapter 3
00:42:45.980 : en:Chapter 4
00:59:21.850 : en:Chapter 5
01:08:45.288 : en:Chapter 6
01:18:21.447 : en:Chapter 7
01:33:07.999 : en:Chapter 8


Релиз от:



   Похожие торренты   Торрент   Размер 
В этой теме нет новых непрочитанных сообщений. Твин Пикс / Twin Peaks [S02] (1990-1991) BDRip 720p | TB-3, NovaMedia

18 | 21

68.98 ГБ

В этой теме нет новых непрочитанных сообщений. Твин Пикс / Twin Peaks [S02] (1990-1991) BDRip-AVC | iPad

49 | 15

23.28 ГБ

В этой теме нет новых непрочитанных сообщений. Твин Пикс / Twin Peaks [S01-02] (1990-1991) BDRip | LostFilm

64 | 52

15.72 ГБ

В этой теме нет новых непрочитанных сообщений. Твин Пикс / Twin Peaks [s02] (1990-1991) BDRip-AVC | TB-3, NovaMedia

65 | 37

26.36 ГБ

В этой теме нет новых непрочитанных сообщений. Твин Пикс / Twin Peaks [S02] (1990-1991) BDRip от HQ-ViDEO

344 | 218

20.12 ГБ

В этой теме нет новых непрочитанных сообщений. Твин Пикс / Twin Peaks [S02] (1991) BDRemux | A

0 | 9

246.56 ГБ

В этой теме нет новых непрочитанных сообщений. Твин Пикс / Twin Peaks [S01-02] (1990-1991) WEB-DLRip | P1

192 | 106

23.25 ГБ




Вы не можете начинать темы
Вы не можете отвечать на сообщения
Вы не можете редактировать свои сообщения
Вы не можете удалять свои сообщения
Вы не можете добавлять вложения

Перейти:  
Для Мосгорсуда, Роскомнадзора и рекламодателей: mosgorsud-torrent[собачка]yandex.ru
 Вход
ppkBB3cker v.2 © 2008-2014 @ PPK
[ Time : 0.821s | 17 Queries | GZIP : Off ]

cron