img image001 image001 image001 image001 image001 image001 image001 image001 image001 image001 image001 image001 image001 image001 image001

Planets Sun Sun Sun
Статистика раздачи
Автор: Nickolas3434 | Размер: 2.62 ГБ | Добавлен: 15 окт 2014
Раздают: 88    Качают: 15
Скачать торрент
Скачать торрент
Описание торрента

СообщениеДобавлено: 15 окт 2014 

Информация о фильме
Название: Штамм
Оригинальное название: The Strain
Год выхода: 2014
Жанр: Ужасы, фантастика, драма, вампиры, экранизация
Режиссер: Гильермо Дель Торо, Дэвид Семел, Кит Гордон
В ролях: Дэвид Брэдли (I), Кори Столл, Миа Маэстро, Джонатан Хайд, Энн Бетанкорт, Бен Хайленд, Николай Вич, Педро Мигель Арсе, Дрю Нельсон, Джо Веркилло, Джим Уотсон, Алекс Пэкстон, Джонатан Поттс, Рихард Заммель, Шон Эстин, Дэррин Бэйкер, Натали Браун, Дональд Бурда, Кевин Дюран, Хавьер Ботет, Реджина Кинг
О фильме:
В аэропорту Нью-Йорка экстренно приземляется самолет, полный мертвецов. Для выяснения обстоятельств их смерти на борт направляются ученые, возглавляемые лучшим городским эпидемиологом Эфраимом Гудвезером. В ходе исследований становится ясно, что пассажиры заражены вирусом вампиризма, который грозит перерасти в масштабную эпидемию, способную погубить все человечество. В обществе нарастает паника, а вызов болезни готовы бросить всего несколько человек: доктор Гудвезер, его команда медиков и группа обладающих специальными знаниями горожан, в состав которой войдет и крысолов по имени Василий Фет.

01. Night Zero / Ночь заражения
02. The Box / Ящик
03. Gone Smooth / Все прошло гладко
04. It's Not for Everyone / Это не для всех
05. Runaways / Беглецы
06. Occultation / Затмение
07. For Services Rendered / За оказанные услуги
08. Creatures of the Night / Ночные создания
09. The Disappeared / Исчезновение
10. Loved Ones / Любимые
11. The Third Rail / Третий Рельс
12. Last Rites / Последние почести
13. The Master

Страна: США
Студия: Mirada
Продолжительность: 1 x 01:11:39, 12 x ~ 00:44:00
Перевод: Профессиональный (многоголосый, закадровый) [AlexFilm]
Файл
Формат: MP4
Качество: WEB-DLRip | КПК
Видео: MPEG-4 AVC (x264), 640x360, ~500 kbps, 23.976 fps
Аудио: AAC LC, 48.0 KHz, 2 ch, 128 Kbps
Субтитры: Нет
Семпл

Complete name : E:KinoShtamm.AVC.WEB-DLRip.KPK.AF.GeneralfilmShtamm.S01.2014.AVC.WEB-DLRip.KPK.AF.GeneralfilmShtamm.s01e02.2014.AVC.WEB-DLRip.KPK.AF.Generalfilm.mp4
Format : MPEG-4
Format profile : Base Media
Codec ID : isom
File size : 197 MiB
Duration : 43mn 42s
Overall bit rate mode : Variable
Overall bit rate : 631 Kbps
Encoded date : UTC 2014-09-24 07:54:46
Tagged date : UTC 2014-09-24 07:54:46
Video
ID : 1
Format : AVC
Format/Info : Advanced Video Codec
Format profile : Baseline@L4.1
Format settings, CABAC : No
Format settings, ReFrames : 6 frames
Codec ID : avc1
Codec ID/Info : Advanced Video Coding
Duration : 43mn 42s
Bit rate : 500 Kbps
Maximum bit rate : 2 135 Kbps
Width : 640 pixels
Height : 360 pixels
Display aspect ratio : 16:9
Frame rate mode : Constant
Frame rate : 23.976 fps
Color space : YUV
Chroma subsampling : 4:2:0
Bit depth : 8 bits
Scan type : Progressive
Bits/(Pixel*Frame) : 0.091
Stream size : 156 MiB (79%)
Writing library : x264 core 125 r2200 999b753
Encoding settings : cabac=0 / ref=6 / deblock=1:-1:-1 / analyse=0x1:0x111 / me=umh / subme=7 / psy=1 / psy_rd=1.00:0.00 / mixed_ref=0 / me_range=16 / chroma_me=1 / trellis=1 / 8x8dct=0 / cqm=0 / deadzone=21,11 / fast_pskip=0 / chroma_qp_offset=-2 / threads=12 / lookahead_threads=2 / sliced_threads=0 / nr=0 / decimate=1 / interlaced=0 / bluray_compat=0 / constrained_intra=0 / bframes=0 / weightp=0 / keyint=250 / keyint_min=23 / scenecut=40 / intra_refresh=0 / rc_lookahead=60 / rc=2pass / mbtree=1 / bitrate=500 / ratetol=1.0 / qcomp=0.60 / qpmin=0 / qpmax=69 / qpstep=4 / cplxblur=20.0 / qblur=0.5 / ip_ratio=1.40 / aq=1:1.00
Encoded date : UTC 2014-09-24 07:54:46
Tagged date : UTC 2014-09-24 07:54:50
Audio
ID : 2
Format : AAC
Format/Info : Advanced Audio Codec
Format profile : LC
Codec ID : 40
Duration : 43mn 42s
Bit rate mode : Variable
Bit rate : 128 Kbps
Maximum bit rate : 158 Kbps
Channel count : 2 channels
Channel positions : Front: L R
Sampling rate : 48.0 KHz
Compression mode : Lossy
Stream size : 40.0 MiB (20%)
Encoded date : UTC 2014-09-24 07:54:49
Tagged date : UTC 2014-09-24 07:54:50

Релиз от:



   Похожие торренты   Торрент   Размер 
В этой теме нет новых непрочитанных сообщений. Штамм / The Strain [S01] (2014) WEB-DLRip от Generalfilm | AlexFilm

130 | 80

8.36 ГБ

В этой теме нет новых непрочитанных сообщений. Штамм / The Strain [S01-02] (2014-2015) WEB-DLRip от Generalfilm | AlexFilm

90 | 161

16.95 ГБ

В этой теме нет новых непрочитанных сообщений. Штамм / The Strain [S01-02] (2014-2015) WEB-DLRip от Generalfilm | КПК | AlexFilm

110 | 157

5.27 ГБ

В этой теме нет новых непрочитанных сообщений. Штамм / The Strain [S01-03] (2014-2016) WEB-DLRip от Generalfilm | КПК | AlexFilm

79 | 42

7.17 ГБ

В этой теме нет новых непрочитанных сообщений. Штамм / The Strain [S02] (2015) WEB-DLRip от GeneralFilm | AlexFilm

70 | 86

9.52 ГБ

В этой теме нет новых непрочитанных сообщений. Штамм / The Strain [02x01-02 из 13] (2015) WEB-DLRip от GeneralFilm | AlexFilm

25 | 14

1.74 ГБ

В этой теме нет новых непрочитанных сообщений. Штамм / The Strain [01х01-10 из 13] (2014) WEB-DLRip | AlexFilm

277 | 637

5.15 ГБ




Вы не можете начинать темы
Вы не можете отвечать на сообщения
Вы не можете редактировать свои сообщения
Вы не можете удалять свои сообщения
Вы не можете добавлять вложения

Перейти:  
Для Мосгорсуда, Роскомнадзора и рекламодателей: mosgorsud-torrent[собачка]yandex.ru
 Вход
ppkBB3cker v.2 © 2008-2014 @ PPK
[ Time : 0.026s | 15 Queries | GZIP : On ]

Торрент трекер RUTOR.IN, Не можете зайти на rutor.org? Какой новый адрес рутор? Какое зеркало рутор? Не работает rutor.org и зеркала? Тогда наш торрент специально для вас. Rutor.in неофициальное зеркало rutor. В случае если у Вас заблокирован rutor или вдруг Вы не можете на него зайти, то Вы без труда сможете скачать бесплатно и без рекламы последние новинки кино, игр, сериалов и прочего у нас, на Rutor.in. Не нужно использовать прокси, чтобы зайти на рутор, достаточно воспользоваться нашим ресурсом. Все новые фильмы, игры, сериалы, книги и музыка за 2013 и 2014 годы через торрент бесплатно. Скачивайте фильмы в хорошем качестве, игры для пк, xbox, playstation без регистрации. У нас вы найдете новые Зарубежные сериалы и Русские сериалы 2013, 2014, 2015 годов. Оставайтесь с нами, качайте любимые фильмы, игры, сериалы, книги и музыку.