img image001 image001 image001 image001 image001 image001 image001 image001 image001 image001 image001 image001 image001 image001 image001

Planets Sun Sun Sun
Статистика раздачи
Автор: Nickolas3434 | Размер: 5.44 ГБ | Добавлен: 15 окт 2014
Раздают: 44    Качают: 38
Скачать торрент
Скачать торрент
Описание торрента

СообщениеДобавлено: 15 окт 2014 

Оригинальное название: Корабль
Год выхода: 2013
Жанр: Мистический триллер, фантастика, приключения, мелодрама, постапокалиптика
Режиссер: Олег Асадулин, Марк Горобец
В ролях: Дмитрий Певцов, Илья Любимов, Юлия Агафонова, Агриппина Стеклова, Владимир Виноградов, Ингрид Олеринская, Матвей Зубалевич, Сергей Друзьяк, Александр Пугачёв (II), Илья Иосифов, Ярослава Базаева, Дмитрий Горевой, Ирина Антоненко, Мария Малиновская, Роман Курцын, Руслан Садковский, Вячеслав Бондарчук, Анастасия Сорокина, Фёдор Сухов, Дарья Храмцова
О фильме:
Капитан Громов, который совсем недавно похоронил свою жену, вынужден взять в плавание двух дочерей. Заботиться о младшей дочери Валерии ему помогают проворная повариха Надежда и ученая Ксения, в которую Капитан безответно влюблен. Помощник поварихи - трогательный Орлуша найдет выход из самой сложной ситуации. А штурман Ракита доведет до белой горячки любого, кто посмеет пойти против устава. Но реальную опасность для всех представляет преподаватель по выживанию Герман, у которого свои планы на корабль.

Страна: Россия
Студия: «Yellow, Black and White», при участии кинокомпании «Мэйнстрим фильм» и телеканала «Ю»
Продолжительность: 26 х ~ 00:48:00
Перевод: Не требуется
Файл
Формат: MP4
Качество: WEB-DLRip | КПК
Видео: MPEG-4 AVC (x264), 640x360, ~500 kbps, 25.000 fps
Аудио: AAC LC, 44.1 KHz, 2 ch, 128 Kbps
Субтитры: Нет
Семпл

Complete name : E:KinoKorabl.S01.2013.AVC.WEB-DLRip.KPK.GeneralfilmKorabl.s01e02.2013.AVC.WEB-DLRip.KPK.Generalfilm.mp4
Format : MPEG-4
Format profile : Base Media
Codec ID : isom
File size : 219 MiB
Duration : 48mn 42s
Overall bit rate mode : Variable
Overall bit rate : 628 Kbps
Encoded date : UTC 2014-09-22 13:04:31
Tagged date : UTC 2014-09-22 13:04:31
Video
ID : 1
Format : AVC
Format/Info : Advanced Video Codec
Format profile : Baseline@L4.1
Format settings, CABAC : No
Format settings, ReFrames : 6 frames
Codec ID : avc1
Codec ID/Info : Advanced Video Coding
Duration : 48mn 42s
Bit rate : 500 Kbps
Maximum bit rate : 5 300 Kbps
Width : 640 pixels
Height : 336 pixels
Display aspect ratio : 1.905
Frame rate mode : Constant
Frame rate : 25.000 fps
Color space : YUV
Chroma subsampling : 4:2:0
Bit depth : 8 bits
Scan type : Progressive
Bits/(Pixel*Frame) : 0.093
Stream size : 174 MiB (79%)
Writing library : x264 core 119 r2106 07efeb4
Encoding settings : cabac=0 / ref=6 / deblock=1:-1:-1 / analyse=0x1:0x111 / me=umh / subme=7 / psy=1 / psy_rd=1.00:0.00 / mixed_ref=0 / me_range=16 / chroma_me=1 / trellis=1 / 8x8dct=0 / cqm=0 / deadzone=21,11 / fast_pskip=0 / chroma_qp_offset=-2 / threads=3 / sliced_threads=0 / nr=0 / decimate=1 / interlaced=0 / bluray_compat=0 / constrained_intra=0 / bframes=0 / weightp=0 / keyint=250 / keyint_min=25 / scenecut=40 / intra_refresh=0 / rc_lookahead=60 / rc=2pass / mbtree=1 / bitrate=500 / ratetol=1.0 / qcomp=0.60 / qpmin=0 / qpmax=69 / qpstep=4 / cplxblur=20.0 / qblur=0.5 / ip_ratio=1.40 / aq=1:1.00
Encoded date : UTC 2014-09-22 13:04:31
Tagged date : UTC 2014-09-22 13:05:11
Audio
ID : 2
Format : AAC
Format/Info : Advanced Audio Codec
Format profile : LC
Codec ID : 40
Duration : 48mn 42s
Bit rate mode : Variable
Bit rate : 127 Kbps
Maximum bit rate : 147 Kbps
Channel count : 2 channels
Channel positions : Front: L R
Sampling rate : 44.1 KHz
Compression mode : Lossy
Stream size : 44.1 MiB (20%)
Encoded date : UTC 2014-09-22 13:05:07
Tagged date : UTC 2014-09-22 13:05:11

Релиз от: Спс за исходник:



   Похожие торренты   Торрент   Размер 
В этой теме нет новых непрочитанных сообщений. Корабль [S01-02] (2013-2015) WEB-DLRip от Generalfilm | КПК

330 | 57

10.95 ГБ

В этой теме нет новых непрочитанных сообщений. Корабль [02x01-05 из 26] (2015) WEB-DLRip от GeneralFilm

113 | 18

1.68 ГБ

В этой теме нет новых непрочитанных сообщений. Корабль [02x01-22 из 26] (2015) WEB-DLRip от GeneralFilm

23 | 32

7.37 ГБ

В этой теме нет новых непрочитанных сообщений. Корабль [02x01-24 из 26] (2015) WEB-DLRip от GeneralFilm

47 | 92

8.04 ГБ

В этой теме нет новых непрочитанных сообщений. Корабль [02x01-26 из 26] (2015) WEB-DLRip от GeneralFilm

884 | 500

8.71 ГБ

В этой теме нет новых непрочитанных сообщений. Корабль [02x01-08 из 26] (2015) WEB-DLRip от GeneralFilm

70 | 62

2.68 ГБ

В этой теме нет новых непрочитанных сообщений. Корабль [02x01-07 из 26] (2015) WEB-DLRip от GeneralFilm

20 | 25

2.35 ГБ




Вы не можете начинать темы
Вы не можете отвечать на сообщения
Вы не можете редактировать свои сообщения
Вы не можете удалять свои сообщения
Вы не можете добавлять вложения

Перейти:  
Для Мосгорсуда, Роскомнадзора и рекламодателей: mosgorsud-torrent[собачка]yandex.ru
 Вход
ppkBB3cker v.2 © 2008-2014 @ PPK
[ Time : 0.043s | 17 Queries | GZIP : Off ]

cron