img image001 image001 image001 image001 image001 image001 image001 image001 image001 image001 image001 image001 image001 image001 image001

Planets Sun Sun Sun
Статистика раздачи
Автор: Nickolas3434 | Размер: 5.64 ГБ | Добавлен: 15 окт 2014
Раздают: 335    Качают: 84
Скачать торрент
Скачать торрент
Описание торрента

СообщениеДобавлено: 15 окт 2014 

«Обратно в школу, чтобы вернуть любовь»



Страна: Россия / ДТ Продакшн
Жанр: мелодрама
Год выпуска: 2013
Продолжительность: 00:50:00 / серия
Перевод: Не требуется
Cубтитры: нет
Оригинальная аудиодорожка: русский
Режиссер: Вартан Акопян
В ролях: Марк Богатырев, Ольга Красько, Ирина Розанова, Ваагн Симонян, Алексей Гришин, Сергей Аброскин, Валерий Баринов, Ольга Тумайкина, Елизавета Лотова, Алина Кушим...
Описание: Из-за скандала в прямом эфире известный телеведущий праймового ток-шоу покидает столицу и устраивается в подмосковную школу учителем литературы. Неудачная шутка во время выпуска ток-шоу «Поболтаем?» стоила его ведущему Арсению Платонову карьеры. Вчерашняя звезда, он возвращается к маме в небольшой подмосковный городок. Новый директор школы, которую десять лет назад заканчивал Арсений, рад встретить столь уважаемого и популярного человека в местном баре. И настойчиво приглашает Платонова в школу — провести несколько факультативов для старшеклассников на тему «Секреты успеха». В школе Арсений встречает свою бывшую одноклассницу Машу, первую красавицу школы, в которую был безответно влюблен. Сейчас она — скромная учительница начальной школы, одинокая, с двумя детьми… Арсений решает остаться на какое-то время в школе, чтобы наверстать упущенное и завоевать бывшую «королеву красоты» — он уверен, что в его нынешнем статусе телезвезды это будет проще простого…


Качество: DVDRip / 2 x DVD9 R5 - лицензионные диски от «Парадиз / Активижен»
Формат: AVI
Видео: 720x400 (16:9), 25.000 fps, XviD ~ 1800 kbps avg, 0.250 bit/pixel
Аудио: 48 kHz, Dolby AC3, 2 ch, 192 kbps, русский
Раздача от:
Общее
Полное имя : Uchitelya.2013.O.DVDRip_[New-Team]_by_keeper\01.avi
Формат : AVI
Формат/Информация : Audio Video Interleave
Размер файла : 738 Мбайт
Продолжительность : 50 м.
Общий поток : 2033 Кбит/сек
Программа кодирования : VirtualDubModRus 1.5.10.2 (build 2542/release)
Библиотека кодирования : VirtualDubMod build 2542/release
Видео
Идентификатор : 0
Формат : MPEG-4 Visual
Профиль формата : Advanced Simple@L5
Параметр BVOP формата : 1
Параметр QPel формата : Нет
Параметр GMC формата : Без точки перехода
Параметр матрицы формата : Выборочная
Идентификатор кодека : XVID
Идентификатор кодека/Подсказка : XviD
Продолжительность : 50 м.
Битрейт : 1800 Кбит/сек
Ширина : 720 пикселей
Высота : 400 пикселей
Соотношение сторон : 16:9
Частота кадров : 25,000 кадров/сек
Цветовое пространство : YUV
Субдискретизация насыщенности : 4:2:0
Битовая глубина : 8 бит
Тип развёртки : Прогрессивная
Метод сжатия : С потерями
Бит/(Пиксели*Кадры) : 0.250
Размер потока : 653 Мбайт (89%)
Библиотека кодирования : XviD 1.2.1 (UTC 2008-12-04)
Аудио
Идентификатор : 1
Формат : AC-3
Формат/Информация : Audio Coding 3
Расширение режима : CM (complete main)
Параметр Endianness формата : Big
Идентификатор кодека : 2000
Продолжительность : 50 м.
Вид битрейта : Постоянный
Битрейт : 224 Кбит/сек
Каналы : 2 канала
Расположение каналов : Front: L R
Частота : 48,0 КГц
Битовая глубина : 16 бит
Метод сжатия : С потерями
Размер потока : 81,3 Мбайт (11%)
Выравнивание : Разделение по промежуткам
Продолжительность промежутка : 40 мс. (1,00 видеокадр)
Время предзагрузки промежутка : 500 мс.





   Похожие торренты   Торрент   Размер 
В этой теме нет новых непрочитанных сообщений. Учителя [01x01-08 из 08] (2013) DVDRip-AVC от New-Team | лицензия

75 | 39

5.62 ГБ

В этой теме нет новых непрочитанных сообщений. Учителя [01x01-08 из 08] (2013) 2xDVD9 от New-Team | Лицензия

280 | 37

15.65 ГБ

В этой теме нет новых непрочитанных сообщений. Сын отца народов [01x01-12 из 12] (2013) DVDRip-AVC от New-Team | лицензия

43 | 10

8.75 ГБ

В этой теме нет новых непрочитанных сообщений. Сын отца народов [01x01-12 из 12] (2013) DVDRip от New-Team | лицензия

59 | 70

8.74 ГБ

В этой теме нет новых непрочитанных сообщений. Берегитесь Бэтмена / Beware the Batman [01x01-13 из 26] (2013-2014) DVDRip от New-Team | P | лицензия

25 | 66

4.36 ГБ

В этой теме нет новых непрочитанных сообщений. Берегитесь Бэтмена / Beware the Batman [01x01-13 из 26] (2013-2014) DVDRip-AVC от New-Team | P | лицензия

30 | 26

4.2 ГБ

В этой теме нет новых непрочитанных сообщений. День учителя (2012) DVDRip-AVC | Лицензия

6 | 1

1.46 ГБ




Вы не можете начинать темы
Вы не можете отвечать на сообщения
Вы не можете редактировать свои сообщения
Вы не можете удалять свои сообщения
Вы не можете добавлять вложения

Перейти:  
Для Мосгорсуда, Роскомнадзора и рекламодателей: mosgorsud-torrent[собачка]yandex.ru
 Вход
ppkBB3cker v.2 © 2008-2014 @ PPK
[ Time : 0.069s | 16 Queries | GZIP : Off ]

cron