img image001 image001 image001 image001 image001 image001 image001 image001 image001 image001 image001 image001 image001 image001 image001

Planets Sun Sun Sun
Статистика раздачи
Автор: Nickolas3434 | Размер: 1.44 ГБ | Добавлен: 16 окт 2014
Раздают: 0    Качают: 23
Скачать торрент
Скачать торрент
Описание торрента

СообщениеДобавлено: 16 окт 2014 

Страна: Россия
Жанр: триллер
Год выпуска: 2014
Продолжительность: 00:54:08


Перевод: Не требуется
Режиссер: Андерс Банке
В ролях:

Кристина Казинская (Аня), Анвар Халилулаев (Гоша), Сергей Романович (Леша), Евгений Стычкин (Костенко), Валерия Дмитриева (Настя), Константин Давыдов (Паша), Илья Щербинин (подкастер), Николай Иванов (отец Ани), Дарья Лузина (мать Ани), Евгения Каверау (Лена, сестра Ани), Сергей Уст (лейтенант), Олег Кривенко (Скрыпник)


Описание: Пятеро молодых людей прыгают в старую «Волгу» и отправляются на поиски вора, часом ранее укравшего из квартиры родителей главного героя восемь миллионов рублей. Грабитель - обычный московский айтишник, - вместо того чтобы залечь на дно, тут же записывает видеоотчет, в котором сообщает, что финальная точка его путешествия - Чернобыльская АЭС и город Припять.





Качество: SATRip-AVC
Контейнер: MKV
Видео: AVC, 704x384 (16:9), 1722 kbps, 25 fps, 0,255 bpp
Аудио: MPEG-1 Audio layer 2 / 2.0 / 48 kHz / 192 kbps /


1-я серия - "Сон, деньги и Чернобыль"
Родители Паши уезжают в отпуск, и он закатывает в квартире грандиозную вечеринку, даже не догадываясь, что завтра ему придется отправиться в самое отчаянное путешествие в его жизни - в Чернобыль, город-призрак...
2-я серия - "Беглец"
Пытаясь скрыться от погони, Паша и его друзья оказываются свидетелями жуткой аварии. Они пытаются помочь единственному выжившему, и несут его в ближайшее кафе, где их подстерегает новая опасность.


General
Unique ID : 211451445202052235298180865446253438519 (0x9F1411278EE0886187F99F417F5C2637)
Complete name : C:my_ripChernobil.2014�1.seria_Сон, деньги и Чернобыль.mkv
Format : Matroska
Format version : Version 2
File size : 740 MiB
Duration : 54mn 8s
Overall bit rate : 1 911 Kbps
Encoded date : UTC 2014-10-15 06:11:42
Writing application : mkvmerge v6.1.0 ('Old Devil') built on Mar 4 2013 09:10:42
Writing library : libebml v1.3.0 + libmatroska v1.4.0
Video
ID : 1
Format : AVC
Format/Info : Advanced Video Codec
Format profile : High@L4.1
Format settings, CABAC : Yes
Format settings, ReFrames : 4 frames
Codec ID : V_MPEG4/ISO/AVC
Duration : 54mn 8s
Bit rate : 1 722 Kbps
Width : 704 pixels
Height : 384 pixels
Display aspect ratio : 16:9
Frame rate : 25.000 fps
Color space : YUV
Chroma subsampling : 4:2:0
Bit depth : 8 bits
Scan type : Progressive
Bits/(Pixel*Frame) : 0.255
Stream size : 651 MiB (88%)
Writing library : x264 core 130 r2273 b3065e6
Encoding settings : cabac=1 / ref=3 / deblock=1:-2:-3 / analyse=0x3:0x133 / me=hex / subme=7 / psy=1 / psy_rd=1.00:0.15 / mixed_ref=1 / me_range=16 / chroma_me=1 / trellis=2 / 8x8dct=1 / cqm=0 / deadzone=21,11 / fast_pskip=0 / chroma_qp_offset=-3 / threads=9 / lookahead_threads=3 / sliced_threads=0 / nr=0 / decimate=1 / interlaced=0 / bluray_compat=0 / constrained_intra=0 / bframes=7 / b_pyramid=2 / b_adapt=2 / b_bias=0 / direct=3 / weightb=1 / open_gop=0 / weightp=2 / keyint=250 / keyint_min=25 / scenecut=40 / intra_refresh=0 / rc_lookahead=50 / rc=2pass / mbtree=1 / bitrate=1722 / ratetol=1.0 / qcomp=0.65 / qpmin=0 / qpmax=69 / qpstep=4 / cplxblur=20.0 / qblur=0.5 / ip_ratio=1.40 / aq=1:1.00
Default : Yes
Forced : No
Audio
ID : 2
Format : MPEG Audio
Format version : Version 1
Format profile : Layer 2
Codec ID : A_MPEG/L2
Codec ID/Hint : MP2
Duration : 54mn 8s
Bit rate mode : Constant
Bit rate : 192 Kbps
Channel(s) : 2 channels
Sampling rate : 48.0 KHz
Compression mode : Lossy
Stream size : 74.4 MiB (10%)
Default : Yes
Forced : No



   Похожие торренты   Торрент   Размер 
В этой теме нет новых непрочитанных сообщений. Чернобыль: Зона отчуждения [01x01 из 20] (2014) SATRip

1234 | 284

2.43 ГБ

В этой теме нет новых непрочитанных сообщений. Чернобыль: Зона отчуждения [01x01 из 20] (2014) SATRip

585 | 118

1.83 ГБ

В этой теме нет новых непрочитанных сообщений. Чернобыль. Зона отчуждения [01х01-05 из 08] (2014) WEB-DLRip-AVC

57 | 30

3.3 ГБ

В этой теме нет новых непрочитанных сообщений. Чернобыль. Зона отчуждения [01х01 из 08] (2014) WEB-DLRip-AVC

16 | 3

726.35 МБ

В этой теме нет новых непрочитанных сообщений. Чернобыль. Зона отчуждения [01х01-07 из 08] (2014) WEB-DLRip-AVC

336 | 67

4.7 ГБ

В этой теме нет новых непрочитанных сообщений. Чернобыль. Зона отчуждения [01х01-08 из 08] (2014) WEB-DLRip-AVC

644 | 240

5.66 ГБ

В этой теме нет новых непрочитанных сообщений. Чернобыль. Зона отчуждения [01х01-08 из 08] (2014) WEB-DLRip-AVC

1055 | 285

5.52 ГБ




Вы не можете начинать темы
Вы не можете отвечать на сообщения
Вы не можете редактировать свои сообщения
Вы не можете удалять свои сообщения
Вы не можете добавлять вложения

Перейти:  
Для Мосгорсуда, Роскомнадзора и рекламодателей: mosgorsud-torrent[собачка]yandex.ru
 Вход
ppkBB3cker v.2 © 2008-2014 @ PPK
[ Time : 0.079s | 17 Queries | GZIP : Off ]
CGP output time : 0.046s | 5 Queries | GZIP : Off

Торрент трекер RUTOR.IN, Не можете зайти на rutor.org? Какой новый адрес рутор? Какое зеркало рутор? Не работает rutor.org и зеркала? Тогда наш торрент специально для вас. Rutor.in неофициальное зеркало rutor. В случае если у Вас заблокирован rutor или вдруг Вы не можете на него зайти, то Вы без труда сможете скачать бесплатно и без рекламы последние новинки кино, игр, сериалов и прочего у нас, на Rutor.in. Не нужно использовать прокси, чтобы зайти на рутор, достаточно воспользоваться нашим ресурсом. Все новые фильмы, игры, сериалы, книги и музыка за 2013 и 2014 годы через торрент бесплатно. Скачивайте фильмы в хорошем качестве, игры для пк, xbox, playstation без регистрации. У нас вы найдете новые Зарубежные сериалы и Русские сериалы 2013, 2014, 2015 годов. Оставайтесь с нами, качайте любимые фильмы, игры, сериалы, книги и музыку.