img image001 image001 image001 image001 image001 image001 image001 image001 image001 image001 image001 image001 image001 image001 image001

Planets Sun Sun Sun
Статистика раздачи
Автор: Nickolas3434 | Размер: 9.09 ГБ | Добавлен: 15 окт 2014
Раздают: 100    Качают: 74
Скачать торрент
Скачать торрент
Описание торрента

СообщениеДобавлено: 15 окт 2014 


Страна: Украина / Компания «НБК», Телеканал Интер, Укртелефильм
Жанр: криминал, детектив
Год выпуска: 2002
Продолжительность: 00:50:00 / серия
Перевод: Не требуется
Cубтитры: нет
Оригинальная аудиодорожка: русский
Режиссер: Владимир Попков, Борис Небиеридзе
В ролях: Сергей Шакуров, Александр Дедюшко, Игорь Бочкин, Евгений Паперный, Сергей Романюк, Татьяна Назарова, Давид Бабаев, Лесь Сердюк, Виталий Борисюк, Виктория Малекторович...
Описание: В ходе избирательной компании группа влиятельных лиц из государственных структур пытается обеспечить победу своего ставленника — губернатора Гридина. Предстоит упорная борьба: у Гридина серьезные конкуренты - мэр Астраханов и олигарх Берлинский. Неожиданно в столичной газете появляется статья журналиста Козлова, обвиняющая ГУВД в инсценировке покушения на действующего губернатора. А спустя некоторое время Козлова находят убитым в своей квартире. Правоохранительные органы считают, что убийство носит заказной характер. Начинается следствие. Свое расследование убийства журналиста начинает частный детектив Кравцов, приехавший из Москвы в областной центр по поручению неизвестного лица…


Качество: DVDRip / 4 x DVD5 R5 - лицензионные диски от компании "DVD LAND"
Формат: AVI
Видео: 688x528 (4:3), 25.000 fps, XviD ~ 1800 kbps avg, 0.198 bit/pixel
Аудио: 48 kHz, Dolby AC3, 6 ch, 384 kbps, русский
Раздача от:
Общее
Полное имя : Kukla.2002.O.DVDRip_[New-Team]_by_keeper\01.avi
Формат : AVI
Формат/Информация : Audio Video Interleave
Размер файла : 775 Мбайт
Продолжительность : 49 м.
Общий поток : 2193 Кбит/сек
Программа кодирования : VirtualDubModRus 1.5.10.2 (build 2542/release)
Библиотека кодирования : VirtualDubMod build 2542/release
Видео
Идентификатор : 0
Формат : MPEG-4 Visual
Профиль формата : Advanced Simple@L5
Параметр BVOP формата : 1
Параметр QPel формата : Нет
Параметр GMC формата : Без точки перехода
Параметр матрицы формата : Выборочная
Идентификатор кодека : XVID
Идентификатор кодека/Подсказка : XviD
Продолжительность : 49 м.
Битрейт : 1799 Кбит/сек
Ширина : 688 пикселей
Высота : 528 пикселей
Соотношение сторон : 4:3
Частота кадров : 25,000 кадров/сек
Цветовое пространство : YUV
Субдискретизация насыщенности : 4:2:0
Битовая глубина : 8 бит
Тип развёртки : Прогрессивная
Метод сжатия : С потерями
Бит/(Пиксели*Кадры) : 0.198
Размер потока : 636 Мбайт (82%)
Библиотека кодирования : XviD 1.2.1 (UTC 2008-12-04)
Аудио
Идентификатор : 1
Формат : AC-3
Формат/Информация : Audio Coding 3
Расширение режима : CM (complete main)
Параметр Endianness формата : Big
Идентификатор кодека : 2000
Продолжительность : 49 м.
Вид битрейта : Постоянный
Битрейт : 384 Кбит/сек
Каналы : 6 каналов
Расположение каналов : Front: L C R, Side: L R, LFE
Частота : 48,0 КГц
Битовая глубина : 16 бит
Метод сжатия : С потерями
Размер потока : 136 Мбайт (18%)
Выравнивание : Разделение по промежуткам
Продолжительность промежутка : 40 мс. (1,00 видеокадр)
Время предзагрузки промежутка : 500 мс.





   Похожие торренты   Торрент   Размер 
В этой теме нет новых непрочитанных сообщений. Кукла [01-12 из 12] (2002) DVDRip-AVC от New-Team | лицензия

47 | 62

9.1 ГБ

В этой теме нет новых непрочитанных сообщений. Кукла [01-12 из 12] (2002) 4 x DVD5 от New-Team | Лицензия

15 | 7

16.91 ГБ

В этой теме нет новых непрочитанных сообщений. Надувная кукла / Air Doll / Kûki ningyô (2009) WEB-DLRip-AVC от New-Team | P

24 | 4

1.45 ГБ

В этой теме нет новых непрочитанных сообщений. Дед 005 (2013) DVDRip-AVC от New-Team | Лицензия

75 | 7

743.11 МБ

В этой теме нет новых непрочитанных сообщений. Дед 005 (2013) DVDRip-AVC от New-Team | Лицензия

225 | 9

1.46 ГБ

В этой теме нет новых непрочитанных сообщений. Департамент [01-16 ИЗ 16] (2013) DVDRip-AVC от New-Team | лицензия

124 | 47

10.97 ГБ

В этой теме нет новых непрочитанных сообщений. Разведчицы [01-12 из 12] (2013) DVDRip от New-Team | лицензия

268 | 48

10.29 ГБ




Вы не можете начинать темы
Вы не можете отвечать на сообщения
Вы не можете редактировать свои сообщения
Вы не можете удалять свои сообщения
Вы не можете добавлять вложения

Перейти:  
Для Мосгорсуда, Роскомнадзора и рекламодателей: mosgorsud-torrent[собачка]yandex.ru
 Вход
ppkBB3cker v.2 © 2008-2014 @ PPK
[ Time : 0.445s | 16 Queries | GZIP : Off ]

Торрент трекер RUTOR.IN, Не можете зайти на rutor.org? Какой новый адрес рутор? Какое зеркало рутор? Не работает rutor.org и зеркала? Тогда наш торрент специально для вас. Rutor.in неофициальное зеркало rutor. В случае если у Вас заблокирован rutor или вдруг Вы не можете на него зайти, то Вы без труда сможете скачать бесплатно и без рекламы последние новинки кино, игр, сериалов и прочего у нас, на Rutor.in. Не нужно использовать прокси, чтобы зайти на рутор, достаточно воспользоваться нашим ресурсом. Все новые фильмы, игры, сериалы, книги и музыка за 2013 и 2014 годы через торрент бесплатно. Скачивайте фильмы в хорошем качестве, игры для пк, xbox, playstation без регистрации. У нас вы найдете новые Зарубежные сериалы и Русские сериалы 2013, 2014, 2015 годов. Оставайтесь с нами, качайте любимые фильмы, игры, сериалы, книги и музыку.
cron