img image001 image001 image001 image001 image001 image001 image001 image001 image001 image001 image001 image001 image001 image001 image001

Planets Sun Sun Sun
Статистика раздачи
Автор: Nickolas3434 | Размер: 2.79 ГБ | Добавлен: 16 окт 2014
Раздают: 98    Качают: 150
Скачать торрент
Скачать торрент
Описание торрента

СообщениеДобавлено: 16 окт 2014 

Информация о фильме
Название: Интерны
Год выхода: 2014
Жанр: Комедия, ситком
Режиссер: Максим Пежемский, Дина Штурманова
В ролях: Иван Охлобыстин, Илья Глинников, Александр Ильин мл., Вадим Демчог, Светлана Камынина, Юлия Назаренко-Благая, Один Ланд Байрон, Светлана Пермякова, Илья Шидловский, Александр Ляпин, Аглая Тарасова
О фильме:
Некоторые люди в белых халатах уверены, что сердце - всего лишь мышца, качающая кровь. Но только не герои нового сезона «Интернов». На вверенном доктору Быкову этаже кипят пушкинские страсти: интриги, секс и любовные треугольники стали нормой жизни . А перчинки всему этому добавят шаманы в палатах, жены с почасовой оплатой и всего один, но зато настоящий пистолет. Все смешалось в отделении доктора Быкова!
11 сезон знаменитого отечественного сериала, в главной роли которого остается неизменной Иван Охлобыстин, спешит столкнуть публику со старыми персонажами и познакомить с новыми. Сюжет снова будет вращаться вокруг самих врачей - Быкова, Кисегач, Купитмана - и не забудет задеть их любимых "мишеней".
Выпущено: Россия, ТНТ, 7 Арт Медиа
Продолжительность: 8 х ~ 00:25:00
Перевод: Не требуется
Файл
Кодек: х264
Качество: WEB-DLRip - AVC
Свойства видео: 1024x576 (16:9), 25 fps, x264, 1840 Kbps, 0.125 bit/pixel
Свойства аудио: 44,1 kHz, Audio Coding 3, 2 ch, ~192 kbps avg
1 СЕРИЯ
Быков решает применить к своим интернам новую педагогическую методу. Его старые интерны будут обучать новых. Романенко, Лобанов и Фил должны стать такими же жестокими и циничными, как сам Быков. Но разве может кто-то сравниться с Андреем Евгеньевичем?
2 СЕРИЯ
Софья влюблена в Романенко, но Купитман не разрешает ему и близко подходить к племяннице. Романенко отвергает Софью, и она, как любая уважающая себя девушка, впадает в депрессию. А Максим с Алёшей в это время практикуют методы нетрадиционной медицины.
3 СЕРИЯ
У Купитмана и Романенко новый план, как отвадить Софью от Романенко. Глеб должен показать ей все свои самые худшие качества. Алёша лечит своего земляка из Торжка, а у пациента Максима совсем другая проблема, ведь он моряк-подводник, а на подлодках совсем нет женщин.
4 СЕРИЯ
У Фила неизлечимая болезнь - он совершенно не умеет врать. А вот Максим врёт просто виртуозно - впрочем, Алёша так же виртуозно разрушает его планы. Кисегач просит Быкова присмотреть за Илюшей, Быков просит присмотреть за Илюшей Софью..
5 СЕРИЯ
Быков запрещает Софье и Романенко любые отношения на работе, но препятствия только раззадоривают Софью. А Купитман, Кисегач и Лобанов чуть не устраивают в больнице пожар, а все для того, чтобы Фил стал ответственным за технику безопасности.
6 СЕРИЯ
Алёша не теряет надежды завоевать Софью, но для этого нужно, чтобы она разошлась с Романенко. Его союзником становится... сам Романенко. Быков забирает у интернов учебную, но зато у них есть целых два квадратных метра в ординаторской...
7 СЕРИЯ
Романенко и Алёша придумывают гениальный план, как привлечь внимание Софьи к Алёше. Как и все гениальные планы, он проваливается. Купитман появляется на работе с фингалом, а всё из-за путаницы в записной книжке...
8 СЕРИЯ
Интерны переехали из учебной комнаты в ординаторскую, и пытаются разобраться, как им ужиться в одном помещении с Быковым. Работа в терапевтическом отделении встала из-за ссоры старших медсестер Любы и Риты, помирить которых сможет только Романенко..
При каждом добавлении создётся новый торрент. Чтобы начать докачку новой серии, пользователям необходимо сделать следующее:
1) остановить скачивание,
2) удалить старый торрент у себя из клиента (старые серии удалять не надо),
3) скачать новый торрент и запустить его у себя в клиенте вместо старого, при этом указать клиенту путь в старую папку куда и должно происходить скачивание новых серий.
Ваш клиент при этом должен произвести хеширование (проверку) старой папки (если не производит сам - помогите ему сделать это), и будет докачивать только те серии которых у вас ещё нет. Старые серии при этом не удаляются, а продолжают раздаваться!
Eсли вы уже удалили старые серии, то предотвратить повторную закачку старых серий можно, отжав галочку в соответствующих местах при запуске нового торрента.
Общее
Уникальный идентификатор : 184120444883136310771369600863256260602 (0x8A844ECD1F90A9DEA0F0957C5AFD2FFA)
Полное имя : D:ВидеоИнтерны.s11.WEBDLRip-AVCИнтерны. c 205 .WEBDLRip-AVC.mkv
Формат : Matroska
Версия формата : Version 2
Размер файла : 335 Мбайт
Продолжительность : 23 м.
Общий поток : 2034 Кбит/сек
Дата кодирования : UTC 2014-10-06 15:00:24
Программа кодирования : mkvmerge v6.1.0 ('Old Devil') built on Mar 4 2013 09:10:42
Библиотека кодирования : libebml v1.3.0 + libmatroska v1.4.0
Видео
Идентификатор : 1
Формат : AVC
Формат/Информация : Advanced Video Codec
Профиль формата : High@L4.1
Параметр CABAC формата : Да
Параметр ReFrames формата : 9 кадров
Идентификатор кодека : V_MPEG4/ISO/AVC
Продолжительность : 23 м.
Битрейт : 1840 Кбит/сек
Ширина : 1024 пикселя
Высота : 576 пикселей
Соотношение сторон : 16:9
Режим частоты кадров : Постоянный
Частота кадров : 25,000 кадров/сек
Цветовое пространство : YUV
Субдискретизация насыщенности : 4:2:0
Битовая глубина : 8 бит
Тип развёртки : Прогрессивная
Бит/(Пиксели*Кадры) : 0.125
Размер потока : 297 Мбайт (89%)
Библиотека кодирования : x264 core 130 r2273 b3065e6
Настройки программы : cabac=1 / ref=9 / deblock=1:-3:-3 / analyse=0x3:0x113 / me=umh / subme=9 / psy=1 / psy_rd=1.00:0.10 / mixed_ref=1 / me_range=32 / chroma_me=1 / trellis=2 / 8x8dct=1 / cqm=0 / deadzone=21,11 / fast_pskip=1 / chroma_qp_offset=-3 / threads=6 / lookahead_threads=1 / sliced_threads=0 / nr=0 / decimate=0 / interlaced=0 / bluray_compat=0 / constrained_intra=0 / bframes=8 / b_pyramid=2 / b_adapt=2 / b_bias=0 / direct=3 / weightb=1 / open_gop=0 / weightp=2 / keyint=250 / keyint_min=25 / scenecut=40 / intra_refresh=0 / rc_lookahead=40 / rc=2pass / mbtree=1 / bitrate=1840 / ratetol=1.0 / qcomp=0.60 / qpmin=0 / qpmax=69 / qpstep=4 / cplxblur=20.0 / qblur=0.5 / ip_ratio=1.40 / aq=1:1.00
Default : Да
Forced : Нет
Аудио
Идентификатор : 2
Формат : AC-3
Формат/Информация : Audio Coding 3
Расширение режима : CM (complete main)
Параметр Endianness формата : Big
Идентификатор кодека : A_AC3
Продолжительность : 23 м.
Вид битрейта : Постоянный
Битрейт : 192 Кбит/сек
Каналы : 2 канала
Расположение каналов : Front: L R
Частота : 44,1 КГц
Битовая глубина : 16 бит
Метод сжатия : С потерями
Размер потока : 31,6 Мбайт (9%)
Default : Да
Forced : Нет



Релиз от:



   Похожие торренты   Торрент   Размер 
В этой теме нет новых непрочитанных сообщений. Интерны [11х01-09 из 23] (2014) WEB-DLRip-AVC от ExKinoRay

164 | 177

3.14 ГБ

В этой теме нет новых непрочитанных сообщений. Интерны [11х01-20 из 20] (2014) WEB-DLRip-AVC от ExKinoRay

1120 | 454

7.02 ГБ

В этой теме нет новых непрочитанных сообщений. Интерны [11х01-07 из 23] (2014) WEB-DLRip-AVC от ExKinoRay

92 | 127

2.43 ГБ

В этой теме нет новых непрочитанных сообщений. Интерны [11х01-04 из 23] (2014) WEB-DLRip-AVC от ExKinoRay

62 | 33

1.72 ГБ

В этой теме нет новых непрочитанных сообщений. Интерны [11х01-10 из 23] (2014) WEB-DLRip-AVC от ExKinoRay

71 | 70

3.49 ГБ

В этой теме нет новых непрочитанных сообщений. Интерны [11х01-12 из 23] (2014) WEB-DLRip-AVC от ExKinoRay

96 | 119

4.2 ГБ

В этой теме нет новых непрочитанных сообщений. Интерны [11х01-18 из 23] (2014) WEB-DLRip-AVC от ExKinoRay

57 | 78

6.31 ГБ




Вы не можете начинать темы
Вы не можете отвечать на сообщения
Вы не можете редактировать свои сообщения
Вы не можете удалять свои сообщения
Вы не можете добавлять вложения

Перейти:  
Для Мосгорсуда, Роскомнадзора и рекламодателей: mosgorsud-torrent[собачка]yandex.ru
 Вход
ppkBB3cker v.2 © 2008-2014 @ PPK
[ Time : 0.068s | 16 Queries | GZIP : Off ]

Торрент трекер RUTOR.IN, Не можете зайти на rutor.org? Какой новый адрес рутор? Какое зеркало рутор? Не работает rutor.org и зеркала? Тогда наш торрент специально для вас. Rutor.in неофициальное зеркало rutor. В случае если у Вас заблокирован rutor или вдруг Вы не можете на него зайти, то Вы без труда сможете скачать бесплатно и без рекламы последние новинки кино, игр, сериалов и прочего у нас, на Rutor.in. Не нужно использовать прокси, чтобы зайти на рутор, достаточно воспользоваться нашим ресурсом. Все новые фильмы, игры, сериалы, книги и музыка за 2013 и 2014 годы через торрент бесплатно. Скачивайте фильмы в хорошем качестве, игры для пк, xbox, playstation без регистрации. У нас вы найдете новые Зарубежные сериалы и Русские сериалы 2013, 2014, 2015 годов. Оставайтесь с нами, качайте любимые фильмы, игры, сериалы, книги и музыку.