img image001 image001 image001 image001 image001 image001 image001 image001 image001 image001 image001 image001 image001 image001 image001

Planets Sun Sun Sun
Статистика раздачи
Автор: Nickolas3434 | Размер: 72.83 ГБ | Добавлен: 17 окт 2014
Раздают: 113    Качают: 82
Скачать торрент
Скачать торрент
Описание торрента

СообщениеДобавлено: 17 окт 2014 

Информация о фильме
Название: Викинги
Оригинальное название: Vikings
Год выпуска: 2014
Жанр: Историческая драма, приключения, викинги
Режиссер: Киаран Доннелли, Йохан Ренк, Кен Джиротти
В ролях: Трэвис Фиммел, Клайв Стэнден, Кэтрин Уинник, Гэбриел Бирн, Джессалин Гилсиг, Густаф Скарсгард, Джефферсон Холл, Джордж Благден, Диармэйд Мурта
О фильме:
Исторический сериал «Викинги» от создателя «Тюдоров» продюсера «Камелота» и «Борджиа» Майкла Херста. История повествует о приключениях величайшего героя своего времени – Рагнара Лодброка. В сериале показан Рагнар со своим племенем братьев-викингов и его семьёй в процессе становления королём всех племён викингов. Рагнар – бесстрашный воин, и религиозный викинг, который объединяет все племена и распространяет среди них поклонение скандинавским богам. Согласно легенде, он – прямой потомок Одина, бога войны и воителей.

Страна: Ирландия, Канада
Студия: Irish Film Board, Take 5 Productions, World 2000 Entertainment
Продолжительность: 10 x ~ 00:44:00
Перевод: Профессиональный многоголосый
Файл
Качество: Blu-ray Remux 1080p
Видео: MPEG-4 AVC, ~ 20000 Кбит/с, 1920x1080, 23.976 кадр/с
Аудио #1: Русский (AC3, 6 ch, 448 Кбит/с) / Профессиональный многоголосый (AlexFilm)
Аудио #2: Русский (AC3, 6 ch, 448 Кбит/с) / Профессиональный многоголосый (NewStudio)
Аудио #3: Русский (AC3, 6 ch, 448 Кбит/с) / Профессиональный многоголосый (LostFilm)
Аудио #4: Русский (AC3, 6 ch, 448 Кбит/с) / Профессиональный многоголосый (BaibaKo)
Аудио #5: Английский (DTS, 6 ch, 1510 Кбит/с)
Субтитры: Русские, английские
01. Война братьев / Brother's War
02. Вторжение / Invasion
03. Предательство / Treachery
04. Око за око / Eye for an Eye
05. Ответ кровью / Answers in Blood
06. Непрощенный / Unforgiven
07. Кровавый орел / Blood Eagle
08. Бесхребетный / Boneless
09. Выбор / The Choice
10. Отче наш / The Lord's Prayer
C:Vikings.s02.BluRay.Remux.(1080p)Vikings.s02e01.2014.x264.BluRay.Remux.mkv
General
Complete name : C:VideosVikings.s02.BluRay.Remux.(1080p)Vikings.s02e01.2014.x264.BluRay.Remux.mkv
Format : Matroska
File size : 6.64 GiB
Duration : 44mn 9s
Overall bit rate : 21.5 Mbps
Movie name : =MediaClub= by =parravoz=
Encoded date : UTC 2014-09-29 04:27:30
Writing application : mkvmerge v5.8.0 ('No Sleep / Pillow') built on Sep 2 2012 15:37:04
Writing library : libebml v1.2.3 + libmatroska v1.3.0
Cover : Yes
Video #1
ID : 1
Format : AVC
Format/Info : Advanced Video Codec
Format profile : High@L4.1
Format settings, CABAC : Yes
Format settings, ReFrames : 4 frames
Muxing mode : Container profile=Unknown@4.1
Codec ID : V_MPEG4/ISO/AVC
Duration : 44mn 7s
Bit rate : 17.8 Mbps
Width : 1 920 pixels
Height : 1 080 pixels
Display aspect ratio : 16:9
Frame rate : 23.976 fps
Resolution : 8 bits
Colorimetry : 4:2:0
Scan type : Progressive
Bits/(Pixel*Frame) : 0.358
Stream size : 5.48 GiB (83%)
Title : Vikings / season - 2 / series - 01 / Bratskaya Voyna
Audio #2
ID : 2
Format : AC-3
Format/Info : Audio Coding 3
Codec ID : A_AC3
Duration : 44mn 9s
Bit rate mode : Constant
Bit rate : 448 Kbps
Channel(s) : 6 channels
Channel positions : Front: L C R, Surround: L R, LFE
Sampling rate : 48.0 KHz
Stream size : 142 MiB (2%)
Title : MVO (AlexFilm)
Language : Russian
Audio #3
ID : 3
Format : AC-3
Format/Info : Audio Coding 3
Codec ID : A_AC3
Duration : 44mn 9s
Bit rate mode : Constant
Bit rate : 448 Kbps
Channel(s) : 6 channels
Channel positions : Front: L C R, Surround: L R, LFE
Sampling rate : 48.0 KHz
Stream size : 142 MiB (2%)
Title : MVO (NewStudio)
Language : Russian
Audio #4
ID : 4
Format : AC-3
Format/Info : Audio Coding 3
Codec ID : A_AC3
Duration : 44mn 9s
Bit rate mode : Constant
Bit rate : 448 Kbps
Channel(s) : 6 channels
Channel positions : Front: L C R, Surround: L R, LFE
Sampling rate : 48.0 KHz
Stream size : 142 MiB (2%)
Title : MVO (LostFilm)
Language : Russian
Audio #5
ID : 5
Format : AC-3
Format/Info : Audio Coding 3
Codec ID : A_AC3
Duration : 44mn 9s
Bit rate mode : Constant
Bit rate : 448 Kbps
Channel(s) : 6 channels
Channel positions : Front: L C R, Surround: L R, LFE
Sampling rate : 48.0 KHz
Stream size : 142 MiB (2%)
Title : MVO (BaibaKo)
Language : Russian
Audio #6
ID : 6
Format : DTS
Format/Info : Digital Theater Systems
Codec ID : A_DTS
Duration : 44mn 9s
Bit rate mode : Constant
Bit rate : 1 510 Kbps
Channel(s) : 6 channels
Channel positions : Front: L C R, Surround: L R, LFE
Sampling rate : 48.0 KHz
Resolution : 24 bits
Stream size : 477 MiB (7%)
Title : Original (ENG)
Text #7
ID : 7
Format : UTF-8
Codec ID : S_TEXT/UTF8
Codec ID/Info : UTF-8 Plain Text
Title : Notabenoid
Language : Russian
Text #8
ID : 8
Format : UTF-8
Codec ID : S_TEXT/UTF8
Codec ID/Info : UTF-8 Plain Text
Title : _Rip_by_paravoz


Релиз от:



   Похожие торренты   Торрент   Размер 
В этой теме нет новых непрочитанных сообщений. Викинги / Vikings [S02] (2014) WEB-DLRip-AVC от MediaClub | AlexFilm, NewStudio, Baibako

119 | 20

10.47 ГБ

В этой теме нет новых непрочитанных сообщений. Викинги / Vikings [02x01-02 из 10] (2014) WEB-DLRip-AVC от MediaClub | AlexFilm, NewStudio, Baibako

332 | 293

2.09 ГБ

В этой теме нет новых непрочитанных сообщений. Викинги / Vikings [02x01-07 из 10] (2014) WEB-DLRip-AVC от MediaClub | AlexFilm, NewStudio, Baibako

22 | 43

7.34 ГБ

В этой теме нет новых непрочитанных сообщений. Викинги / Vikings [02x01-04 из 10] (2014) WEB-DLRip-AVC от MediaClub | AlexFilm, NewStudio, Baibako

20 | 36

4.18 ГБ

В этой теме нет новых непрочитанных сообщений. Викинги / Vikings [02x01 из 10] (2014) WEB-DLRip-AVC от MediaClub | AlexFilm, NewStudio, Baibako

190 | 34

1.04 ГБ

В этой теме нет новых непрочитанных сообщений. Викинги / Vikings [02x01-09 из 10] (2014) WEB-DLRip-AVC от MediaClub | AlexFilm, NewStudio, Baibako

14 | 41

9.43 ГБ

В этой теме нет новых непрочитанных сообщений. Викинги / Vikings [02x01-03 из 10] (2014) WEB-DLRip-AVC от MediaClub | AlexFilm, NewStudio, Baibako

26 | 11

3.14 ГБ




Вы не можете начинать темы
Вы не можете отвечать на сообщения
Вы не можете редактировать свои сообщения
Вы не можете удалять свои сообщения
Вы не можете добавлять вложения

Перейти:  
Для Мосгорсуда, Роскомнадзора и рекламодателей: mosgorsud-torrent[собачка]yandex.ru
 Вход
ppkBB3cker v.2 © 2008-2014 @ PPK
[ Time : 0.028s | 15 Queries | GZIP : On ]

Торрент трекер RUTOR.IN, Не можете зайти на rutor.org? Какой новый адрес рутор? Какое зеркало рутор? Не работает rutor.org и зеркала? Тогда наш торрент специально для вас. Rutor.in неофициальное зеркало rutor. В случае если у Вас заблокирован rutor или вдруг Вы не можете на него зайти, то Вы без труда сможете скачать бесплатно и без рекламы последние новинки кино, игр, сериалов и прочего у нас, на Rutor.in. Не нужно использовать прокси, чтобы зайти на рутор, достаточно воспользоваться нашим ресурсом. Все новые фильмы, игры, сериалы, книги и музыка за 2013 и 2014 годы через торрент бесплатно. Скачивайте фильмы в хорошем качестве, игры для пк, xbox, playstation без регистрации. У нас вы найдете новые Зарубежные сериалы и Русские сериалы 2013, 2014, 2015 годов. Оставайтесь с нами, качайте любимые фильмы, игры, сериалы, книги и музыку.