img image001 image001 image001 image001 image001 image001 image001 image001 image001 image001 image001 image001 image001 image001 image001

Planets Sun Sun Sun
Статистика раздачи
Автор: Nickolas3434 | Размер: 9.1 ГБ | Добавлен: 16 окт 2014
Раздают: 47    Качают: 62
Скачать торрент
Скачать торрент
Описание торрента

СообщениеДобавлено: 16 окт 2014 


Страна: Украина / Компания «НБК», Телеканал Интер, Укртелефильм
Жанр: криминал, детектив
Год выпуска: 2002
Продолжительность: 00:50:00 / серия
Перевод: Не требуется
Cубтитры: нет
Оригинальная аудиодорожка: русский
Режиссер: Владимир Попков, Борис Небиеридзе
В ролях: Сергей Шакуров, Александр Дедюшко, Игорь Бочкин, Евгений Паперный, Сергей Романюк, Татьяна Назарова, Давид Бабаев, Лесь Сердюк, Виталий Борисюк, Виктория Малекторович...
Описание: В ходе избирательной компании группа влиятельных лиц из государственных структур пытается обеспечить победу своего ставленника — губернатора Гридина. Предстоит упорная борьба: у Гридина серьезные конкуренты - мэр Астраханов и олигарх Берлинский. Неожиданно в столичной газете появляется статья журналиста Козлова, обвиняющая ГУВД в инсценировке покушения на действующего губернатора. А спустя некоторое время Козлова находят убитым в своей квартире. Правоохранительные органы считают, что убийство носит заказной характер. Начинается следствие. Свое расследование убийства журналиста начинает частный детектив Кравцов, приехавший из Москвы в областной центр по поручению неизвестного лица…


Качество: DVDRip-AVC / 4 x DVD5 R5 - лицензионные диски от компании "DVD LAND"
Формат: MKV
Видео: 688x572@752x572 (1,297:1), 25.000 fps, MPEG-4 AVC ~ 1809 kbps avg, 0.184 bit/pixel
Аудио: 48 kHz, Dolby AC3, 6 ch, 384 kbps, русский
Раздача от:
Общее
Полное имя : Kukla.2002.O.DVDRip-AVC_[New-Team]_by_keeper\01.mkv
Формат : Matroska
Версия формата : Version 4 / Version 2
Размер файла : 775 Мбайт
Продолжительность : 49 м.
Общий поток : 2195 Кбит/сек
Дата кодирования : UTC 2014-10-15 11:42:11
Программа кодирования : mkvmerge v7.2.0 ('On Every Street') 64bit built on Sep 13 2014 15:52:10
Библиотека кодирования : libebml v1.3.0 + libmatroska v1.4.1
DURATION : 00:49:23.488000000
NUMBER_OF_FRAMES : 92609
NUMBER_OF_BYTES : 142247424
_STATISTICS_WRITING_APP : mkvmerge v7.2.0 ('On Every Street') 64bit built on Sep 13 2014 15:52:10
_STATISTICS_WRITING_DATE_UTC : 2014-10-15 11:42:11
_STATISTICS_TAGS : BPS DURATION NUMBER_OF_FRAMES NUMBER_OF_BYTES
Видео
Идентификатор : 1
Формат : AVC
Формат/Информация : Advanced Video Codec
Профиль формата : High@L4.1
Параметр CABAC формата : Да
Параметр ReFrames формата : 8 кадров
Идентификатор кодека : V_MPEG4/ISO/AVC
Продолжительность : 49 м.
Битрейт : 1809 Кбит/сек
Ширина : 688 пикселей
Высота : 572 пикселя
Соотношение сторон : 1,297
Соотношение сторон в оригинале : 1,298
Режим частоты кадров : Постоянный
Частота кадров : 25,000 кадров/сек
Цветовое пространство : YUV
Субдискретизация насыщенности : 4:2:0
Битовая глубина : 8 бит
Тип развёртки : Прогрессивная
Бит/(Пиксели*Кадры) : 0.184
Размер потока : 624 Мбайт (81%)
Библиотека кодирования : x264 core 130 r2273 b3065e6
Настройки программы : cabac=1 / ref=8 / deblock=1:-2:-1 / analyse=0x3:0x113 / me=umh / subme=10 / psy=1 / psy_rd=1.00:0.05 / mixed_ref=1 / me_range=32 / chroma_me=1 / trellis=2 / 8x8dct=1 / cqm=0 / deadzone=21,11 / fast_pskip=0 / chroma_qp_offset=-3 / threads=9 / lookahead_threads=1 / sliced_threads=0 / nr=0 / decimate=0 / interlaced=0 / bluray_compat=0 / constrained_intra=0 / bframes=8 / b_pyramid=2 / b_adapt=2 / b_bias=0 / direct=3 / weightb=1 / open_gop=0 / weightp=2 / keyint=250 / keyint_min=25 / scenecut=40 / intra_refresh=0 / rc=2pass / mbtree=0 / bitrate=1809 / ratetol=1.0 / qcomp=0.60 / qpmin=0 / qpmax=69 / qpstep=4 / cplxblur=20.0 / qblur=0.5 / ip_ratio=1.40 / pb_ratio=1.30 / aq=1:1.00
Язык : Russian
Default : Да
Forced : Нет
DURATION : 00:49:23.520000000
NUMBER_OF_FRAMES : 74088
NUMBER_OF_BYTES : 670063928
_STATISTICS_WRITING_APP : mkvmerge v7.2.0 ('On Every Street') 64bit built on Sep 13 2014 15:52:10
_STATISTICS_WRITING_DATE_UTC : 2014-10-15 11:42:11
_STATISTICS_TAGS : BPS DURATION NUMBER_OF_FRAMES NUMBER_OF_BYTES
Аудио
Идентификатор : 2
Формат : AC-3
Формат/Информация : Audio Coding 3
Расширение режима : CM (complete main)
Параметр Endianness формата : Big
Идентификатор кодека : A_AC3
Продолжительность : 49 м.
Вид битрейта : Постоянный
Битрейт : 384 Кбит/сек
Каналы : 6 каналов
Расположение каналов : Front: L C R, Side: L R, LFE
Частота : 48,0 КГц
Битовая глубина : 16 бит
Метод сжатия : С потерями
Размер потока : 136 Мбайт (17%)
Язык : Russian
Default : Да
Forced : Нет





   Похожие торренты   Торрент   Размер 
В этой теме нет новых непрочитанных сообщений. Кукла [01-12 из 12] (2002) 4 x DVD5 от New-Team | Лицензия

15 | 7

16.91 ГБ

В этой теме нет новых непрочитанных сообщений. Кукла [01-08 из 08] (2013) DVDRip от New-Team | лицензия

100 | 74

9.09 ГБ

В этой теме нет новых непрочитанных сообщений. Я - кукла (2002) DVDRip от Киномагия

98 | 11

1.37 ГБ

В этой теме нет новых непрочитанных сообщений. Кукла [12 серий из 12] (2002) DVDRip от КинозалSat

7 | 7

6.45 ГБ

В этой теме нет новых непрочитанных сообщений. Надувная кукла / Air Doll / Kûki ningyô (2009) WEB-DLRip-AVC от New-Team | P

24 | 4

1.45 ГБ

В этой теме нет новых непрочитанных сообщений. Элизиум / Elysium (2002) DVD9 от New-Team | D | Лицензия

39 | 33

7.21 ГБ

В этой теме нет новых непрочитанных сообщений. Адаптация / Adaptation (2002) DVD9 от New-Team | P2 | Лицензия

34 | 18

5.46 ГБ




Вы не можете начинать темы
Вы не можете отвечать на сообщения
Вы не можете редактировать свои сообщения
Вы не можете удалять свои сообщения
Вы не можете добавлять вложения

Перейти:  
Для Мосгорсуда, Роскомнадзора и рекламодателей: mosgorsud-torrent[собачка]yandex.ru
 Вход
ppkBB3cker v.2 © 2008-2014 @ PPK
[ Time : 0.045s | 17 Queries | GZIP : Off ]

Торрент трекер RUTOR.IN, Не можете зайти на rutor.org? Какой новый адрес рутор? Какое зеркало рутор? Не работает rutor.org и зеркала? Тогда наш торрент специально для вас. Rutor.in неофициальное зеркало rutor. В случае если у Вас заблокирован rutor или вдруг Вы не можете на него зайти, то Вы без труда сможете скачать бесплатно и без рекламы последние новинки кино, игр, сериалов и прочего у нас, на Rutor.in. Не нужно использовать прокси, чтобы зайти на рутор, достаточно воспользоваться нашим ресурсом. Все новые фильмы, игры, сериалы, книги и музыка за 2013 и 2014 годы через торрент бесплатно. Скачивайте фильмы в хорошем качестве, игры для пк, xbox, playstation без регистрации. У нас вы найдете новые Зарубежные сериалы и Русские сериалы 2013, 2014, 2015 годов. Оставайтесь с нами, качайте любимые фильмы, игры, сериалы, книги и музыку.
cron