img image001 image001 image001 image001 image001 image001 image001 image001 image001 image001 image001 image001 image001 image001 image001

Planets Sun Sun Sun
Статистика раздачи
Автор: Nickolas3434 | Размер: 24.93 ГБ | Добавлен: 19 окт 2014
Раздают: 5    Качают: 20
Скачать торрент
Скачать торрент
Описание торрента

СообщениеДобавлено: 19 окт 2014 

Год выпуска: 2012-2014
Страна: Великобретания
Жанр: Драмы, Триллеры, Детективы
Продолжительность: 0:58:00
Сезоны / серии: 2 / 11
Перевод: Профессиональный многоголосый закадровый


В ролях: Крэйг Паркинсон, Пол Хиггинс, Мартин Компстон, Кейт Эшфилд, Ленни Джеймс, Клер Килен, Кили Хоуз, Эдриан Данбар, Нил Мориссей, Марк Боннар, Вики МакКлюр, Кристина Чонг, Ричард Хув, Томи Мэй, Фиона Бойлэн, Саффрон Дейвис, Jordyn-Eve Davis Greene, Тони Питтс, Грегори Пайпер, Ниал МакГрегор
Режиссёр: Дэвид Кэффри, Дэниэл Неттхейм, Дуглас Маккиннон


Описание:Новый британский полицейский сериал, рассказывающий о том, как бывший детектив-сержант начинает свое расследование в отделе по борьбе с коррупцией. Он попадает туда не по своей воле, но вскоре понимает, что за кажущимся спокойствием скрываются самые безжалостные преступления…
Главным режиссером фильма стал Дуглас Маккинон, специализирующийся на сериалах и снявший до этого «Джекил», «Доктор Кто» и «Последний детектив». Главные роли исполнили не очень известные, но очень талантливые Ленни Джеймс, Вики МакКлюр и Мартин Компстон.
Детектив-сержант Стив Арнотт всегда считался лучшим в своем отделе, но после неудачной террористической операции, в ходе которой была одна жертва, его переводят в более спокойный и менее ответственный отдел по борьбе с коррупцией. Там Арнотт должен продолжить дело о предполагаемой коррупции успешного главного инспектора Тони Гейтса, однако вскоре после начала работы герой подозревает, что Гейтс - просто подставная кукла…


Качество: WEB-DL 1080p
Формат: MPEG-4
Видео кодек: AVC
Аудио кодек: AAC, AA3
Видео: MPEG4 (H264), 1920x1080, 25fps, 5114kbps
Аудио#1: AAC 48000Hz stereo 148kbps l RUS - SonyTurbo
Аудио#2: Dolby AC3 48000Hz stereo 256kbps l RUS - SonyTurbo


Format : MPEG-4
Format profile : QuickTime
Codec ID : qt
File size : 2.27 GiB
Duration : 58mn 44s
Overall bit rate : 5 527 Kbps
Writing application : Lavf56.1.100
Video
ID : 1
Format : AVC
Format/Info : Advanced Video Codec
Format profile : High@L4.0
Format settings, CABAC : Yes
Format settings, ReFrames : 3 frames
Codec ID : avc1
Codec ID/Info : Advanced Video Coding
Duration : 58mn 44s
Bit rate : 5 115 Kbps
Width : 1 920 pixels
Height : 1 080 pixels
Display aspect ratio : 16:9
Frame rate mode : Constant
Frame rate : 25.000 fps
Color space : YUV
Chroma subsampling : 4:2:0
Bit depth : 8 bits
Scan type : Progressive
Bits/(Pixel*Frame) : 0.099
Stream size : 2.10 GiB (93%)
Language : English
Audio #1
ID : 2
Format : AAC
Format/Info : Advanced Audio Codec
Format profile : LC
Codec ID : 40
Duration : 58mn 44s
Duration_LastFrame : 43ms
Bit rate mode : Constant
Bit rate : 148 Kbps
Channel(s) : 2 channels
Channel positions : Front: L R
Sampling rate : 48.0 KHz
Compression mode : Lossy
Stream size : 62.3 MiB (3%)
Language : English
Audio #2
ID : 3
Format : AC-3
Format/Info : Audio Coding 3
Codec ID : ac-3
Duration : 58mn 44s
Bit rate mode : Constant
Bit rate : 256 Kbps
Channel(s) : 2 channels
Channel positions : Front: L R
Sampling rate : 48.0 KHz
Bit depth : 16 bits
Compression mode : Lossy
Stream size : 108 MiB (5%)
Language : English





   Похожие торренты   Торрент   Размер 
В этой теме нет новых непрочитанных сообщений. По долгу службы / Line of duty [S01] (2012) HDTVRip | L

0 | 1

3.02 ГБ

В этой теме нет новых непрочитанных сообщений. По долгу службы / Line of Duty [s01] (2012) HDTVRip 720p от Brazzass

58 | 14

5.26 ГБ

В этой теме нет новых непрочитанных сообщений. По долгу службы / Line of duty [S01] (2012) WEB-DLRip от MediaClub | Sony Turbo

190 | 47

3.82 ГБ

В этой теме нет новых непрочитанных сообщений. По долгу службы / Line of duty [S01] (2012) WEB-DL 720р от MediaClub | Sony Turbo

89 | 23

9.83 ГБ

В этой теме нет новых непрочитанных сообщений. По долгу службы / Line of duty [02x01 из 06] (2014) WEB-DLRip от MediaClub | Sony Turbo

52 | 22

3.85 ГБ

В этой теме нет новых непрочитанных сообщений. По долгу службы / Line of duty [02x01 из 06] (2014) WEB-DL 720р от MediaClub | Sony Turbo

21 | 11

9.68 ГБ

В этой теме нет новых непрочитанных сообщений. По долгу службы / Line of duty [02x01 из 06] (2014) WEB-DL 720р от MediaClub | Sony Turbo

7 | 2

3.86 ГБ




Вы не можете начинать темы
Вы не можете отвечать на сообщения
Вы не можете редактировать свои сообщения
Вы не можете удалять свои сообщения
Вы не можете добавлять вложения

Перейти:  
Для Мосгорсуда, Роскомнадзора и рекламодателей: mosgorsud-torrent[собачка]yandex.ru
 Вход
ppkBB3cker v.2 © 2008-2014 @ PPK
[ Time : 0.055s | 16 Queries | GZIP : Off ]

cron