img image001 image001 image001 image001 image001 image001 image001 image001 image001 image001 image001 image001 image001 image001 image001

Planets Sun Sun Sun
Статистика раздачи
Автор: Nickolas3434 | Размер: 4.82 ГБ | Добавлен: 22 окт 2014
Раздают: 126    Качают: 23
Скачать торрент
Скачать торрент
Описание торрента

СообщениеДобавлено: 22 окт 2014 


Страна: СССР / Студия Горького, Гостелерадио
Жанр: криминал, детектив, приключения...
Год выпуска: 1987
Продолжительность: 01:10:00 / серия
Перевод: Не требуется
Cубтитры: нет
Оригинальная аудиодорожка: русский
Режиссер: Эльдор Уразбаев
В ролях: Сергей Шакуров, Анна Каменкова, Владимир Самойлов, Лаймонас Норейка, Ростислав Плятт, Михаил Пуговкин, Нина Меньшикова, Валентин Гафт, Александр Филиппенко, Лев Борисов...
Роли дублировали: Владимир Сафронов, Игорь Тарадайкин, Рудольф Панков, Владимир Ферапонтов, Сергей Быстрицкий...
Описание: В основе детективной истории — поиски пропавшей скрипки Антонио Страдивари. Это одна сюжетная линия фильма, но одновременно с ней существует вторая — историческая, она переносит зрителя в XVII век и посвящена жизни Мастера и его работе над скрипкой.


Качество: SATRip / DVB - трансляция телеканала "Звезда"
Формат: AVI
Видео: 688x528 (4:3), 25.000 fps, XviD ~ 1800 kbps avg, 0.198 bit/pixel
Аудио: 48 kHz, Dolby AC3, 2 ch, 192 kbps, русский
Раздача от:
Общее
Полное имя : Vizit.k.Minotavru.1987.O.SATRip_[New-Team]_by_keeper1.avi
Формат : AVI
Формат/Информация : Audio Video Interleave
Размер файла : 1,01 Гбайт
Продолжительность : 1 ч. 12 м.
Общий поток : 1996 Кбит/сек
Программа кодирования : VirtualDubModRus 1.5.10.2 (build 2542/release)
Библиотека кодирования : VirtualDubMod build 2542/release
Видео
Идентификатор : 0
Формат : MPEG-4 Visual
Профиль формата : Advanced Simple@L5
Параметр BVOP формата : 1
Параметр QPel формата : Нет
Параметр GMC формата : Без точки перехода
Параметр матрицы формата : Выборочная
Идентификатор кодека : XVID
Идентификатор кодека/Подсказка : XviD
Продолжительность : 1 ч. 12 м.
Битрейт : 1795 Кбит/сек
Ширина : 688 пикселей
Высота : 528 пикселей
Соотношение сторон : 4:3
Частота кадров : 25,000 кадров/сек
Цветовое пространство : YUV
Субдискретизация насыщенности : 4:2:0
Битовая глубина : 8 бит
Тип развёртки : Прогрессивная
Метод сжатия : С потерями
Бит/(Пиксели*Кадры) : 0.198
Размер потока : 931 Мбайт (90%)
Библиотека кодирования : XviD 73
Аудио
Идентификатор : 1
Формат : AC-3
Формат/Информация : Audio Coding 3
Расширение режима : CM (complete main)
Параметр Endianness формата : Big
Идентификатор кодека : 2000
Продолжительность : 1 ч. 12 м.
Вид битрейта : Постоянный
Битрейт : 192 Кбит/сек
Каналы : 2 канала
Расположение каналов : Front: L R
Частота : 48,0 КГц
Битовая глубина : 16 бит
Метод сжатия : С потерями
Размер потока : 99,6 Мбайт (10%)
Выравнивание : Разделение по промежуткам
Продолжительность промежутка : 40 мс. (1,00 видеокадр)
Время предзагрузки промежутка : 500 мс.





   Похожие торренты   Торрент   Размер 
В этой теме нет новых непрочитанных сообщений. Визит к Минотавру [01-05 из 05] (1987) SATRip-AVC от New-Team

35 | 6

4.84 ГБ

В этой теме нет новых непрочитанных сообщений. Визит к Минотавру [01-05 из 05] (1987) SATRip-AVC от ExKinoRay

92 | 52

7.55 ГБ

В этой теме нет новых непрочитанных сообщений. Визит к Минотавру [01-05 из 05] (1987) DVDRip

1220 | 71

2.45 ГБ

В этой теме нет новых непрочитанных сообщений. Визит к Минотавру (1987) DVDRip от PlanetaUA

118 | 21

4.26 ГБ

В этой теме нет новых непрочитанных сообщений. Вайнер Аркадий, Вайнер Георгий - Визит к Минотавру (2013) MP3

105 | 3

630.49 МБ

В этой теме нет новых непрочитанных сообщений. Визит / The Visit (2015) BDRip-AVC от New-Team | Лицензия

353 | 28

2.18 ГБ

В этой теме нет новых непрочитанных сообщений. Визит / The Visit (2015) BDRip-AVC от New-Team | Лицензия

450 | 32

1.46 ГБ




Вы не можете начинать темы
Вы не можете отвечать на сообщения
Вы не можете редактировать свои сообщения
Вы не можете удалять свои сообщения
Вы не можете добавлять вложения

Перейти:  
Для Мосгорсуда, Роскомнадзора и рекламодателей: mosgorsud-torrent[собачка]yandex.ru
 Вход
ppkBB3cker v.2 © 2008-2014 @ PPK
[ Time : 0.043s | 16 Queries | GZIP : On ]

Торрент трекер RUTOR.IN, Не можете зайти на rutor.org? Какой новый адрес рутор? Какое зеркало рутор? Не работает rutor.org и зеркала? Тогда наш торрент специально для вас. Rutor.in неофициальное зеркало rutor. В случае если у Вас заблокирован rutor или вдруг Вы не можете на него зайти, то Вы без труда сможете скачать бесплатно и без рекламы последние новинки кино, игр, сериалов и прочего у нас, на Rutor.in. Не нужно использовать прокси, чтобы зайти на рутор, достаточно воспользоваться нашим ресурсом. Все новые фильмы, игры, сериалы, книги и музыка за 2013 и 2014 годы через торрент бесплатно. Скачивайте фильмы в хорошем качестве, игры для пк, xbox, playstation без регистрации. У нас вы найдете новые Зарубежные сериалы и Русские сериалы 2013, 2014, 2015 годов. Оставайтесь с нами, качайте любимые фильмы, игры, сериалы, книги и музыку.