img image001 image001 image001 image001 image001 image001 image001 image001 image001 image001 image001 image001 image001 image001 image001

Planets Sun Sun Sun
Статистика раздачи
Автор: Nickolas3434 | Размер: 4.84 ГБ | Добавлен: 22 окт 2014
Раздают: 35    Качают: 6
Скачать торрент
Скачать торрент
Описание торрента

СообщениеДобавлено: 22 окт 2014 


Страна: СССР / Студия Горького, Гостелерадио
Жанр: криминал, детектив, приключения
Год выпуска: 1987
Продолжительность: 01:10:00 / серия
Перевод: Не требуется
Cубтитры: нет
Оригинальная аудиодорожка: русский
Режиссер: Эльдор Уразбаев
В ролях: Сергей Шакуров, Анна Каменкова, Владимир Самойлов, Валентин Гафт, Александр Филиппенко, Ростислав Плятт, Лаймонас Норейка, Лев Борисов, Светлана Харитонова, Юрий Катин-Ярцев, Валентин Никулин, Николай Денисов (II), Александр Делибаш, Марина Левтова, Михаил Пуговкин, Александр Яковлев, Григорий Лямпе, Нина Меньшикова, Юрий Мороз, Андрей Дубовский, Наталья Аринбасарова, Леонид Белозорович, Лилия Захарова, Эрвин Кнаусмюллер, Борис Левинсон, Александр Рахленко, Валентин Смирнитский, Евгений Супонев, Олег Хабалов, Аудрюс Мечисловас Хадаравичюс, Татьяна Чернопятова, Нина Шацкая, Фердинандас Якшис, Анатолий Ганшин, Александр Савченко, Саша Порошков, Борис Сморчков, Владимир Скляров, Леонардас Зельчюс, Пятрас Стяпонавичюс
Роли дублировали: Владимир Сафронов, Игорь Тарадайкин, Рудольф Панков, Владимир Ферапонтов, Сергей Быстрицкий...
Описание: В основе детективной истории - поиски пропавшей скрипки Антонио Страдивари. Это одна сюжетная линия фильма, но с ней существует вторая - историческая, она переносит зрителя в XVII век и посвящена жизни Мастера и его работе над скрипкой. Когда-то Иконников имел шанс стать первой скрипкой. Но этого не произошло - конкурс выиграл его друг Поляков. Друг перестал быть другом, а прекрасный исполнитель, не желая быть вторым или третьим, нашел себе хобби и посвятил оставшиеся года изучению змей. Прошло много лет. Однажды во время отсутствия скрипача и педагога Льва Иосифовича Полякова была ограблена его квартира. Среди множества ценных и малоценных вещей, которых лишился профессор, была скрипка «Санта-Мария», одна из лучших работ Антонио Страдивари, созданная более 260-ти лет тому назад в период творческого расцвета мастера... По одноименному роману Аркадия и Георгия Вайнеров.


Качество: SATRip-AVC / DVB - трансляция телеканала "Звезда"
Формат: MKV
Видео: 688x570@744x570 (1.291:1), 25.000 fps, MPEG-4 AVC ~ 1809 kbps avg, 0.185 bit/pixel
Аудио: 48 kHz, Dolby AC3, 2 ch, 192 kbps, русский
Раздача от:
Общее
Полное имя : Vizit.k.Minotavru.1987.O.SATRip-AVC_[New-Team]_by_keeper1.mkv
Формат : Matroska
Версия формата : Version 4 / Version 2
Размер файла : 1,01 Гбайт
Продолжительность : 1 ч. 12 м.
Общий поток : 2003 Кбит/сек
Дата кодирования : UTC 2014-10-19 15:30:16
Программа кодирования : mkvmerge v7.2.0 ('On Every Street') 64bit built on Sep 13 2014 15:52:10
Библиотека кодирования : libebml v1.3.0 + libmatroska v1.4.1
DURATION : 01:12:29.536000000
NUMBER_OF_FRAMES : 135923
NUMBER_OF_BYTES : 104388864
_STATISTICS_WRITING_APP : mkvmerge v7.2.0 ('On Every Street') 64bit built on Sep 13 2014 15:52:10
_STATISTICS_WRITING_DATE_UTC : 2014-10-19 15:30:16
_STATISTICS_TAGS : BPS DURATION NUMBER_OF_FRAMES NUMBER_OF_BYTES
Видео
Идентификатор : 1
Формат : AVC
Формат/Информация : Advanced Video Codec
Профиль формата : High@L4.1
Параметр CABAC формата : Да
Параметр ReFrames формата : 8 кадров
Идентификатор кодека : V_MPEG4/ISO/AVC
Продолжительность : 1 ч. 12 м.
Битрейт : 1809 Кбит/сек
Ширина : 688 пикселей
Высота : 570 пикселей
Соотношение сторон : 1,291
Режим частоты кадров : Постоянный
Частота кадров : 25,000 кадров/сек
Цветовое пространство : YUV
Субдискретизация насыщенности : 4:2:0
Битовая глубина : 8 бит
Тип развёртки : Прогрессивная
Бит/(Пиксели*Кадры) : 0.185
Размер потока : 918 Мбайт (88%)
Библиотека кодирования : x264 core 138 r2356 a1d3d17
Настройки программы : cabac=1 / ref=8 / deblock=1:-2:-1 / analyse=0x3:0x113 / me=umh / subme=10 / psy=1 / psy_rd=1.00:0.05 / mixed_ref=1 / me_range=32 / chroma_me=1 / trellis=2 / 8x8dct=1 / cqm=0 / deadzone=21,11 / fast_pskip=0 / chroma_qp_offset=-3 / threads=6 / lookahead_threads=1 / sliced_threads=0 / nr=0 / decimate=0 / interlaced=0 / bluray_compat=0 / constrained_intra=0 / bframes=8 / b_pyramid=2 / b_adapt=2 / b_bias=0 / direct=3 / weightb=1 / open_gop=0 / weightp=2 / keyint=250 / keyint_min=25 / scenecut=40 / intra_refresh=0 / rc=2pass / mbtree=0 / bitrate=1809 / ratetol=1.0 / qcomp=0.60 / qpmin=0 / qpmax=69 / qpstep=4 / cplxblur=20.0 / qblur=0.5 / ip_ratio=1.40 / pb_ratio=1.30 / aq=1:1.00
Язык : Russian
Default : Да
Forced : Нет
Аудио
Идентификатор : 2
Формат : AC-3
Формат/Информация : Audio Coding 3
Расширение режима : CM (complete main)
Параметр Endianness формата : Big
Идентификатор кодека : A_AC3
Продолжительность : 1 ч. 12 м.
Вид битрейта : Постоянный
Битрейт : 192 Кбит/сек
Каналы : 2 канала
Расположение каналов : Front: L R
Частота : 48,0 КГц
Битовая глубина : 16 бит
Метод сжатия : С потерями
Размер потока : 99,6 Мбайт (10%)
Язык : Russian
Default : Да
Forced : Нет





   Похожие торренты   Торрент   Размер 
В этой теме нет новых непрочитанных сообщений. Визит к Минотавру [01-05 из 05] (1987) SATRip от New-Team

126 | 23

4.82 ГБ

В этой теме нет новых непрочитанных сообщений. Визит к Минотавру [01-05 из 05] (1987) SATRip-AVC от ExKinoRay

92 | 52

7.55 ГБ

В этой теме нет новых непрочитанных сообщений. Визит к Минотавру [01-05 из 05] (1987) DVDRip

1220 | 71

2.45 ГБ

В этой теме нет новых непрочитанных сообщений. Визит к Минотавру (1987) DVDRip от PlanetaUA

118 | 21

4.26 ГБ

В этой теме нет новых непрочитанных сообщений. Вайнер Аркадий, Вайнер Георгий - Визит к Минотавру (2013) MP3

105 | 3

630.49 МБ

В этой теме нет новых непрочитанных сообщений. Визит / The Visit (2015) BDRip-AVC от New-Team | Лицензия

353 | 28

2.18 ГБ

В этой теме нет новых непрочитанных сообщений. Визит / The Visit (2015) BDRip-AVC от New-Team | Лицензия

450 | 32

1.46 ГБ




Вы не можете начинать темы
Вы не можете отвечать на сообщения
Вы не можете редактировать свои сообщения
Вы не можете удалять свои сообщения
Вы не можете добавлять вложения

Перейти:  
Для Мосгорсуда, Роскомнадзора и рекламодателей: mosgorsud-torrent[собачка]yandex.ru
 Вход
ppkBB3cker v.2 © 2008-2014 @ PPK
[ Time : 0.034s | 15 Queries | GZIP : Off ]

Торрент трекер RUTOR.IN, Не можете зайти на rutor.org? Какой новый адрес рутор? Какое зеркало рутор? Не работает rutor.org и зеркала? Тогда наш торрент специально для вас. Rutor.in неофициальное зеркало rutor. В случае если у Вас заблокирован rutor или вдруг Вы не можете на него зайти, то Вы без труда сможете скачать бесплатно и без рекламы последние новинки кино, игр, сериалов и прочего у нас, на Rutor.in. Не нужно использовать прокси, чтобы зайти на рутор, достаточно воспользоваться нашим ресурсом. Все новые фильмы, игры, сериалы, книги и музыка за 2013 и 2014 годы через торрент бесплатно. Скачивайте фильмы в хорошем качестве, игры для пк, xbox, playstation без регистрации. У нас вы найдете новые Зарубежные сериалы и Русские сериалы 2013, 2014, 2015 годов. Оставайтесь с нами, качайте любимые фильмы, игры, сериалы, книги и музыку.