img image001 image001 image001 image001 image001 image001 image001 image001 image001 image001 image001 image001 image001 image001 image001

Planets Sun Sun Sun
Статистика раздачи
Автор: Nickolas3434 | Размер: 13.46 ГБ | Добавлен: 22 окт 2014
Раздают: 79    Качают: 32
Скачать торрент
Скачать торрент
Описание торрента

СообщениеДобавлено: 22 окт 2014 

Информация о фильме
Название: Агенты Щ.И.Т.
Оригинальное название: Marvel's Agents of S.H.I.E.L.D.
Год выхода: 2013
Жанр: Боевик, фантастика
Режиссер: Джосс Уидон
В ролях: Кларк Грегг, Минг-На, Бретт Далтон, Хлоя Беннет, Йен де Кестекер, Элизабет Хенстридж, Дж. Аугуст Ричардс, Б.Дж. Бритт, Дэвид Конрад, Билл Пэкстон, Рут Негга, Саффрон Берроуз
О фильме:
Действия сериала разворачиваются после событий в фильме "Мстители". Агент Фил Колсон возвращается в правоохранительную организацию под названием Щ.И.Т. Собрав небольшую команду профессионалов, он начинает работу над новыми делами, которые порой бывают очень странными. В команде Щ.И.Т.а мы увидим довольно-таки прямолинейного агента - Гранта, который является экспертом по шпионаже и боевым действиям; так же числе специалист по восточным единоборствам и пилот - агент Мелинда Мэй; гениальные ученые-социофобы Джемма Симмонс и Лео Фитц; недавно рекрутированный хакер - Скай. Сериал снятый по комиксам от Marvel's "Агенты Щ.И.Т.а" это настоящее эпическое приключение, демонстрирующее чудо человеческого духа и надежду на лучшее. Вы погрузитесь в мир супергероев, в мир неизведанного, в мир пришельцев, зрелищ и невероятных историй. Телесериал "Агенты Щ.И.Т.а" показывает нам не людей со сверхспособностями, а людей с огромной силой воли и невероятной храбростью, ведь несмотря на отсутствие каких-либо необычайных способностей, эти агенты рвутся в бой и спасают весь мир от злодеев и гибели. Ведь каждый из агентов по отдельности это сила и ум, ну а вместе они способны спасти всю планету.

01. Пилот / Pilot
02. 0-8-4 / 0-8-4
03. Ценный груз / The Asset
04. Глаз-алмаз / Eye-Spy
05. Девушка в цветастом платье / Girl in the Flower Dress
06. ФЗЗТ / FZZT
07. Центр / The Hub
08. Колодец / The Well
09. Восстановление / Repairs
10. Мост / The Bridge
11. Волшебное место / The Magical Place
12. Семена / Seeds
13. П.У.Т.И. / T.R.A.C.K.S.
14. Т.А.И.Т.И. / T.A.H.I.T.I.
15. Безотказные / Yes Men
16. Конец начала / End of the Beginning
17. Поворот, поворот, поворот / Turn, Turn, Turn
18. Провидение / Providence
19. Свет во тьме / The Only Light in the Darkness
20. Ничего личного / Nothing Personal
21. Сброд и шатание / Ragtag
22. Начало конца / Beginning of the End

Страна: США
Студия: ABC Studios, Marvel Television
Продолжительность: 22 x ~ 00:43:00
Перевод: Дублированный [Невафильм]
Файл
Формат: AVI
Качество: WEB-DLRip
Видео: XviD, 720x400, ~1800 kbps, 23.976 fps
Аудио: AC3, 48.0 KHz, 2 ch, 192 Kbps
Субтитры: Нет
Семпл

Complete name : E:KinoAgenty.Shh.I.T.XviD.WEB-DLRip.NF.GeneralfilmAgenty.Shh.I.T.S01.2013-2014.XviD.WEB-DLRip.NF.GeneralfilmAgenty.Shh.I.T.s01e10.2013.XviD.WEB-DLRip.NF.Generalfilm.avi
Format : AVI
Format/Info : Audio Video Interleave
File size : 597 MiB
Duration : 41mn 38s
Overall bit rate : 2 005 Kbps
Writing application : VirtualDubMod 1.5.10.3 | www.virtualdub-fr.org || (build 2550/release)
Writing library : VirtualDubMod build 2550/release
Video
ID : 0
Format : MPEG-4 Visual
Format profile : Advanced Simple@L5
Format settings, BVOP : 2
Format settings, QPel : No
Format settings, GMC : No warppoints
Format settings, Matrix : Default (H.263)
Codec ID : XVID
Codec ID/Hint : XviD
Duration : 41mn 38s
Bit rate : 1 804 Kbps
Width : 720 pixels
Height : 400 pixels
Display aspect ratio : 16:9
Frame rate : 23.976 fps
Color space : YUV
Chroma subsampling : 4:2:0
Bit depth : 8 bits
Scan type : Progressive
Compression mode : Lossy
Bits/(Pixel*Frame) : 0.261
Stream size : 537 MiB (90%)
Writing library : XviD 1.2.1 (UTC 2008-12-04)
Audio
ID : 1
Format : AC-3
Format/Info : Audio Coding 3
Mode extension : CM (complete main)
Format settings, Endianness : Big
Codec ID : 2000
Duration : 41mn 38s
Bit rate mode : Constant
Bit rate : 192 Kbps
Channel count : 2 channels
Channel positions : Front: L R
Sampling rate : 48.0 KHz
Bit depth : 16 bits
Compression mode : Lossy
Stream size : 57.2 MiB (10%)
Alignment : Split accross interleaves
Interleave, duration : 42 ms (1.00 video frame)
Interleave, preload duration : 500 ms

Релиз от:



   Похожие торренты   Торрент   Размер 
В этой теме нет новых непрочитанных сообщений. Агенты Щ.И.Т. / Marvel's Agents of S.H.I.E.L.D. [S01] (2013-2014) WEB-DLRip от Generalfilm | КПК | Невафильм

131 | 33

4.13 ГБ

В этой теме нет новых непрочитанных сообщений. Агенты Щ.И.Т. / Marvel's Agents of S.H.I.E.L.D. [S01-03] (2013-2016) HDRip, WEB-DLRip от Generalfilm | КПК | Невафильм

29 | 29

12.3 ГБ

В этой теме нет новых непрочитанных сообщений. Агенты Щ.И.Т. / Marvel's Agents of S.H.I.E.L.D. [S01] (2013-2014) WEB-DLRip | Невафильм

152 | 76

10.73 ГБ

В этой теме нет новых непрочитанных сообщений. Агенты Щ.И.Т. / Marvel's Agents of S.H.I.E.L.D. [01х01-06 из 22] (2013-2014) WEB-DLRip | D | Невафильм

9 | 46

2.93 ГБ

В этой теме нет новых непрочитанных сообщений. Агенты Щ.И.Т. / Marvel's Agents of S.H.I.E.L.D. [01х01-04 из 22] (2013-2014) WEB-DLRip | Невафильм

22 | 7

1.95 ГБ

В этой теме нет новых непрочитанных сообщений. Агенты Щ.И.Т. / Marvel's Agents of S.H.I.E.L.D. [01х01-14 из 22] (2013-2014) WEB-DLRip | Невафильм

12 | 24

6.83 ГБ

В этой теме нет новых непрочитанных сообщений. Агенты Щ.И.Т. / Marvel's Agents of S.H.I.E.L.D. [01х01-18 из 22] (2013-2014) WEB-DLRip | Невафильм

22 | 20

8.78 ГБ




Вы не можете начинать темы
Вы не можете отвечать на сообщения
Вы не можете редактировать свои сообщения
Вы не можете удалять свои сообщения
Вы не можете добавлять вложения

Перейти:  
Для Мосгорсуда, Роскомнадзора и рекламодателей: mosgorsud-torrent[собачка]yandex.ru
 Вход
ppkBB3cker v.2 © 2008-2014 @ PPK
[ Time : 0.083s | 16 Queries | GZIP : Off ]

Торрент трекер RUTOR.IN, Не можете зайти на rutor.org? Какой новый адрес рутор? Какое зеркало рутор? Не работает rutor.org и зеркала? Тогда наш торрент специально для вас. Rutor.in неофициальное зеркало rutor. В случае если у Вас заблокирован rutor или вдруг Вы не можете на него зайти, то Вы без труда сможете скачать бесплатно и без рекламы последние новинки кино, игр, сериалов и прочего у нас, на Rutor.in. Не нужно использовать прокси, чтобы зайти на рутор, достаточно воспользоваться нашим ресурсом. Все новые фильмы, игры, сериалы, книги и музыка за 2013 и 2014 годы через торрент бесплатно. Скачивайте фильмы в хорошем качестве, игры для пк, xbox, playstation без регистрации. У нас вы найдете новые Зарубежные сериалы и Русские сериалы 2013, 2014, 2015 годов. Оставайтесь с нами, качайте любимые фильмы, игры, сериалы, книги и музыку.