img image001 image001 image001 image001 image001 image001 image001 image001 image001 image001 image001 image001 image001 image001 image001

Planets Sun Sun Sun
Статистика раздачи
Автор: Nickolas3434 | Размер: 1.69 ГБ | Добавлен: 24 окт 2014
Раздают: 93    Качают: 17
Скачать торрент
Скачать торрент
Описание торрента

СообщениеДобавлено: 24 окт 2014 

Информация о фильме
Оригинальное название: Тайный город
Год выхода: 2014
Жанр: Фэнтези, экранизация
Режиссер: Александр Мохов
В ролях: Павел Прилучный, Марчин Руй, Игорь Жижикин, Александра Флоринская, Елена Ташаева, Александр Мохов, Илья Исаев, Юлия Такшина, Михаил Горевой, Михаил Полицеймако, Дмитрий Митюрич, Ангелина Добророднова, Дарья Сагалова, Кирилл Дубровицкий, Александр Числов, Агата Муцениеце, Сергей Романович, Даниил Меркулов, Юлия Самойленко, Ольга Дементьева, Светлана Устинова, Иван Литвинов, Екатерина Долгова, Александр Стёпин
О фильме:
Экранизация двух первых романов из цикла Вадима Панова «Тайный Город» – «Войны начинают неудачники» и «Командор войны». Сериал-фэнтези «Тайный город» рассказывает о «другой Москве», где неизвестно — сколько сердец у твоего соседа. Ведьмы, оборотни… Наши предки преследовали их и беспощадно уничтожали. Но потомки этих исчезнувших цивилизаций и сейчас обитают в магическом Тайном городе, который много тысяч лет существует на территории Москвы и сокрыт от глаз обычных людей защитными чарами. Но некоторым все же удастся в него заглянуть, и даже — освоиться в Тайном Городе.

Страна: Россия
Студия: Студия ТГ ФИЛЬМ, РЕН ТВ
Продолжительность: 8 х ~ 00:48:00
Перевод: Не требуется
Файл
Формат: MP4
Качество: DVDRip | КПК
Видео: MPEG-4 AVC (x264), 640x360, ~500 kbps, 25.000 fps
Аудио: AAC LC, 48.0 KHz, 2 ch, 128 Kbps
Субтитры: Нет
Семпл

Complete name : E:KinoTainyi.Gorod.AVC.DVDRip.Kpk.GeneralfilmTainyi.Gorod.S01.2014.AVC.DVDRip.Kpk.GeneralfilmTainyi.Gorod.s01e03.2014.AVC.DVDRip.Kpk.Generalfilm.mp4
Format : MPEG-4
Format profile : Base Media
Codec ID : isom
File size : 217 MiB
Duration : 48mn 3s
Overall bit rate mode : Variable
Overall bit rate : 630 Kbps
Encoded date : UTC 2014-10-12 14:56:12
Tagged date : UTC 2014-10-12 14:56:12
Video
ID : 1
Format : AVC
Format/Info : Advanced Video Codec
Format profile : Baseline@L4.1
Format settings, CABAC : No
Format settings, ReFrames : 6 frames
Codec ID : avc1
Codec ID/Info : Advanced Video Coding
Duration : 48mn 3s
Bit rate : 500 Kbps
Maximum bit rate : 2 785 Kbps
Width : 640 pixels
Height : 360 pixels
Display aspect ratio : 16:9
Frame rate mode : Constant
Frame rate : 25.000 fps
Color space : YUV
Chroma subsampling : 4:2:0
Bit depth : 8 bits
Scan type : Progressive
Bits/(Pixel*Frame) : 0.087
Stream size : 172 MiB (79%)
Writing library : x264 core 119 r2106 07efeb4
Encoding settings : cabac=0 / ref=6 / deblock=1:-1:-1 / analyse=0x1:0x111 / me=umh / subme=7 / psy=1 / psy_rd=1.00:0.00 / mixed_ref=0 / me_range=16 / chroma_me=1 / trellis=1 / 8x8dct=0 / cqm=0 / deadzone=21,11 / fast_pskip=0 / chroma_qp_offset=-2 / threads=3 / sliced_threads=0 / nr=0 / decimate=1 / interlaced=0 / bluray_compat=0 / constrained_intra=0 / bframes=0 / weightp=0 / keyint=250 / keyint_min=25 / scenecut=40 / intra_refresh=0 / rc_lookahead=60 / rc=2pass / mbtree=1 / bitrate=500 / ratetol=1.0 / qcomp=0.60 / qpmin=0 / qpmax=69 / qpstep=4 / cplxblur=20.0 / qblur=0.5 / ip_ratio=1.40 / aq=1:1.00
Encoded date : UTC 2014-10-12 14:56:12
Tagged date : UTC 2014-10-12 14:56:49
Audio
ID : 2
Format : AAC
Format/Info : Advanced Audio Codec
Format profile : LC
Codec ID : 40
Duration : 48mn 3s
Bit rate mode : Variable
Bit rate : 128 Kbps
Maximum bit rate : 146 Kbps
Channel count : 2 channels
Channel positions : Front: L R
Sampling rate : 48.0 KHz
Compression mode : Lossy
Stream size : 44.0 MiB (20%)
Encoded date : UTC 2014-10-12 14:56:21
Tagged date : UTC 2014-10-12 14:56:49

Релиз от:



   Похожие торренты   Торрент   Размер 
В этой теме нет новых непрочитанных сообщений. Тайный город [02х01-08 из 08] (2014) SATRip от Generalfilm

630 | 92

4.3 ГБ

В этой теме нет новых непрочитанных сообщений. Тайный город [01-08 из 08] (2014) DVDRip от New-Team | лицензия

1364 | 630

5.38 ГБ

В этой теме нет новых непрочитанных сообщений. Тайный город - Фэнтези сериал по книгам Вадима Панова [01-08 из 08] (2014) DVDRip-AVC от New-Team | лицензия

248 | 84

5.38 ГБ

В этой теме нет новых непрочитанных сообщений. Тайный город [01-08 из 08] (2014) SATRip

2932 | 513

4.22 ГБ

В этой теме нет новых непрочитанных сообщений. Тайный город [S01-S02] (2014) DVBRip

356 | 139

17.87 ГБ

В этой теме нет новых непрочитанных сообщений. Тайный город [01-08 из 08] (2014) 2 x DVD9 от New-Team | Лицензия

51 | 38

15.3 ГБ

В этой теме нет новых непрочитанных сообщений. Тайный город [v. 2.07] (2013) PC

67 | 2

288.39 МБ




Вы не можете начинать темы
Вы не можете отвечать на сообщения
Вы не можете редактировать свои сообщения
Вы не можете удалять свои сообщения
Вы не можете добавлять вложения

Перейти:  
Для Мосгорсуда, Роскомнадзора и рекламодателей: mosgorsud-torrent[собачка]yandex.ru
 Вход
ppkBB3cker v.2 © 2008-2014 @ PPK
[ Time : 0.552s | 16 Queries | GZIP : Off ]

Торрент трекер RUTOR.IN, Не можете зайти на rutor.org? Какой новый адрес рутор? Какое зеркало рутор? Не работает rutor.org и зеркала? Тогда наш торрент специально для вас. Rutor.in неофициальное зеркало rutor. В случае если у Вас заблокирован rutor или вдруг Вы не можете на него зайти, то Вы без труда сможете скачать бесплатно и без рекламы последние новинки кино, игр, сериалов и прочего у нас, на Rutor.in. Не нужно использовать прокси, чтобы зайти на рутор, достаточно воспользоваться нашим ресурсом. Все новые фильмы, игры, сериалы, книги и музыка за 2013 и 2014 годы через торрент бесплатно. Скачивайте фильмы в хорошем качестве, игры для пк, xbox, playstation без регистрации. У нас вы найдете новые Зарубежные сериалы и Русские сериалы 2013, 2014, 2015 годов. Оставайтесь с нами, качайте любимые фильмы, игры, сериалы, книги и музыку.
cron