img image001 image001 image001 image001 image001 image001 image001 image001 image001 image001 image001 image001 image001 image001 image001

Planets Sun Sun Sun
Статистика раздачи
Автор: Nickolas3434 | Размер: 9.38 ГБ | Добавлен: 26 окт 2014
Раздают: 63    Качают: 20
Скачать торрент
Скачать торрент
Описание торрента

СообщениеДобавлено: 26 окт 2014 

Информация о фильме
Название: Твин Пикс
Оригинальное название: Twin Peaks
Год выхода: 1990-1991
Жанр: триллер, драма, криминал, детектив
Режиссер: Дэвид Линч, Дайан Китон, Джонатан Сэнгер
В ролях: Кайл МакЛахлан, Майкл Онткин, Шерил Ли, Лара Флинн Бойл, Шерилин Фенн, Рэй Уайз, Мигель Феррер, Дэвид Линч, Билли Зейн, Хезер Грэм, Мэдчен Эмик, Дэна Эшбрук, Ричард Беймер, Уоррен Фрост, Пегги Липтон, Джеймс Маршалл, Эверет МакГилл, Джек Нэнс, Джоан Чен, Кимми Робертсон, Майкл Хорс, Пайпер Лори, Гарри Гоаз, Эрик ДаРе, Уэнди Роби, Расс Тэмблин, Дон С. Дэвис, Крис Малки, Гаррисон Хершбергер, Грэйс Забриски, Катрин Э. Колсон, Йен Бьюкэнэн, Мэри Джо Дешанель, Фрэнк Силва, Кеннет Уэлш, Аль Штробель, Дэвид Патрик Келли, Джон Бойлэн, Виктория Кэтлин
О фильме:
Основная сюжетная линия фильма - история расследования специальным агентом ФБР Дейлом Купером загадочного убийства юной школьницы Лоры Палмер, которая, казалось бы, была примерна во всех отношениях. Позднее откроется, что между видимым и реальным была невероятная пропасть. История начинается с известия о находке обнаженного тела, завернутого в полиэтилен и выброшенного волнами на берег озера. В ходе расследования перед внимательными взглядами агента Купера, шерифа Трумена и его помощников проходят разные жители Твин Пикс. Постепенно зритель открывает для себя поражающее многообразие сторон жизни этого, на первый взгляд, тихого и мирного городка: от драматической романтики до леденящего, мистического ужаса. Режиссер картины, Дэвид Линч, позднее скажет в одном из интервью: «Твин Пикс - везде. Это не место. Это состояние".
Страна: США
Студия: Lynch Frost Productions, Propaganda Films, Spelling Entertainment, Twin Peaks Productions Inc.
Продолжительность: Pilot (∼ 94 мин) + 7 серий (∼ 47 мин);
Файл
Формат: m4v
Качество: BDRip-AVC
Видео: H.264, 768x576 (4:3), ∼2625 kbps, 23,976 fps
Звук: AAC, 2 channels, 48.0 KHz, 96-160 kbps VBR
Аудио 1: Русский - профессиональный многоголосый | Sci-Fi
Аудио 2: Русский - профессиональный многоголосый | ОРТ
Аудио 3: Русский - авторский одноголосый | Сербин
Аудио 4: Английский - оригинал
Субтитры: русские, английские
Метатэги: прописаны
Навигация по главам: есть
Раздача будет полезна пользователям iOS и OS X платформ.
При просмотре на Windows рекомендую пользоваться iTunes или VLC media player.
1 серия
x264 [info]: frame I:982 Avg QP:15.41 size: 82091 PSNR Mean Y:48.09 U:51.47 V:52.69 Avg:49.00 Global:48.08
x264 [info]: frame P:24159 Avg QP:18.51 size: 25014 PSNR Mean Y:45.10 U:49.82 V:50.65 Avg:46.21 Global:45.72
x264 [info]: frame B:110179 Avg QP:20.86 size: 8620 PSNR Mean Y:43.15 U:49.32 V:50.30 Avg:44.42 Global:43.80
x264 [info]: consecutive B-frames: 1.1% 0.5% 2.1% 7.9% 19.8% 46.4% 10.3% 5.3% 3.6% 3.1%
x264 [info]: mb I I16..4: 4.8% 73.7% 21.5%
x264 [info]: mb P I16..4: 0.8% 7.2% 0.9% P16..4: 41.1% 28.9% 16.3% 0.0% 0.0% skip: 4.9%
x264 [info]: mb B I16..4: 0.0% 1.7% 0.1% B16..8: 42.2% 9.2% 2.6% direct: 7.7% skip:36.6% L0:46.6% L1:45.3% BI: 8.0%
x264 [info]: 8x8 transform intra:84.8% inter:58.0%
x264 [info]: coded y,uvDC,uvAC intra: 92.9% 67.8% 35.7% inter: 29.9% 15.7% 1.5%
x264 [info]: i16 v,h,dc,p: 44% 16% 13% 27%
x264 [info]: i8 v,h,dc,ddl,ddr,vr,hd,vl,hu: 8% 8% 12% 10% 14% 12% 13% 11% 13%
x264 [info]: i4 v,h,dc,ddl,ddr,vr,hd,vl,hu: 11% 10% 5% 10% 14% 13% 13% 11% 14%
x264 [info]: i8c dc,h,v,p: 37% 29% 21% 13%
x264 [info]: Weighted P-Frames: Y:10.4% UV:3.5%
x264 [info]: ref P L0: 37.7% 9.4% 19.3% 8.0% 7.7% 5.4% 5.6% 3.0% 3.4% 0.5% 0.0%
x264 [info]: ref B L0: 61.7% 15.5% 8.4% 4.9% 3.7% 3.4% 1.8% 0.6%
x264 [info]: ref B L1: 89.1% 10.9%
x264 [info]: SSIM Mean Y:0.9720615 (15.538db)
x264 [info]: PSNR Mean Y:43.530 U:49.424 V:50.379 Avg:44.774 Global:44.110 kb/s:2317.01
General
Format : MPEG-4
Codec ID : M4V
File size : 1.99 GiB
Duration : 1h 34mn
Overall bit rate mode : Variable
Overall bit rate : 3 031 Kbps
Collection : Twin Peaks
Season : 1
Album : Twin Peaks, Season 1
Part : 1
Track name : Pilot
Track name/Position : 1
Track name/Total : 8
Performer : Twin Peaks
Genre : Drama
ContentType : TV Show
Deion : The small northwest town of Twin Peaks, Washington is shaken up when the body of the Homecoming Queen, Laura Palmer, is discovered washed up on a riverbank, wrapped in plastic. / "She's dead. Wrapped in plastic." Date: Friday, February 24, 1989: Homecoming Queen Laura Palmer is found dead, washed up on a riverbank, and wrapped in plastic sheeting. FBI Special Agent Dale Cooper is called in to investigate the murder of this young woman in the small, Northwestern town of Twin Peaks. What he doesn't know is that in Twin Peaks, no one is innocent.
Recorded date : 1990-04-08
Encoded date : UTC 2014-09-10 07:20:25
Tagged date : UTC 2014-09-10 07:37:04
Cover : Yes
Rating : None
TVNetworkName : ABC
Part_ID : 101
LongDeion : The small northwest town of Twin Peaks, Washington is shaken up when the body of the Homecoming Queen, Laura Palmer, is discovered washed up on a riverbank, wrapped in plastic.
AppleStoreCountry : United States
AppleStoreCatalogID : 364911866
AlbumTitleID : 363775603
PlayListID : 363775606
ContentRating : us-tv|TV-PG|400|
Video #1
ID : 1
Format : AVC
Format/Info : Advanced Video Codec
Format profile : High@L3.1
Format settings, CABAC : Yes
Format settings, ReFrames : 9 frames
Codec ID : avc1
Codec ID/Info : Advanced Video Coding
Duration : 1h 34mn
Bit rate : 2 317 Kbps
Maximum bit rate : 10.6 Mbps
Width : 768 pixels
Height : 576 pixels
Display aspect ratio : 4:3
Frame rate mode : Constant
Frame rate : 23.976 fps
Color space : YUV
Chroma subsampling : 4:2:0
Bit depth : 8 bits
Scan type : Progressive
Bits/(Pixel*Frame) : 0.218
Stream size : 1.52 GiB (76%)
Writing library : x264 core 130 r2273 b3065e6
Encoding settings : cabac=1 / ref=9 / deblock=1:0:0 / analyse=0x3:0x113 / me=umh / subme=10 / psy=1 / psy_rd=1.00:0.00 / mixed_ref=1 / me_range=32 / chroma_me=1 / trellis=2 / 8x8dct=1 / cqm=0 / deadzone=21,11 / fast_pskip=1 / chroma_qp_offset=-2 / threads=6 / lookahead_threads=1 / sliced_threads=0 / nr=0 / decimate=1 / interlaced=0 / bluray_compat=0 / constrained_intra=0 / bframes=9 / b_pyramid=2 / b_adapt=2 / b_bias=0 / direct=1 / weightb=1 / open_gop=0 / weightp=2 / keyint=240 / keyint_min=24 / scenecut=40 / intra_refresh=0 / rc_lookahead=40 / rc=crf / mbtree=1 / crf=18.0 / qcomp=0.60 / qpmin=0 / qpmax=69 / qpstep=4 / ip_ratio=1.40 / aq=1:1.00
Language : English
Encoded date : UTC 2014-09-10 07:20:25
Tagged date : UTC 2014-09-10 07:21:22
Color primaries : BT.709
Transfer characteristics : BT.709
Matrix coefficients : BT.709
Video #2
ID : 10
Format : JPEG
Codec ID : jpeg
Duration : 1h 34mn
Bit rate mode : Variable
Bit rate : 679 bps
Width : 640 pixels
Height : 480 pixels
Display aspect ratio : 4:3
Frame rate mode : Variable
Frame rate : 0.002 fps
Minimum frame rate : 0.001 fps
Maximum frame rate : 0.020 fps
Color space : YUV
Chroma subsampling : 4:2:0
Bit depth : 8 bits
Compression mode : Lossy
Bits/(Pixel*Frame) : 1.105
Stream size : 373 KiB (0%)
Language : English
Encoded date : UTC 2014-09-10 07:36:14
Tagged date : UTC 2014-09-10 07:36:14
Audio #1
ID : 2
Format : AAC
Format/Info : Advanced Audio Codec
Format profile : LC
Codec ID : 40
Duration : 1h 34mn
Bit rate mode : Variable
Bit rate : 166 Kbps
Maximum bit rate : 217 Kbps
Channel(s) : 2 channels
Channel positions : Front: L R
Sampling rate : 48.0 KHz
Compression mode : Lossy
Stream size : 112 MiB (5%)
Title : Sci_Fi
Language : Russian
Encoded date : UTC 2014-09-10 06:49:37
Tagged date : UTC 2014-09-10 07:21:22
Audio #2
ID : 3
Format : AAC
Format/Info : Advanced Audio Codec
Format profile : LC
Codec ID : 40
Duration : 1h 34mn
Bit rate mode : Variable
Bit rate : 188 Kbps
Maximum bit rate : 208 Kbps
Channel(s) : 2 channels
Channel positions : Front: L R
Sampling rate : 48.0 KHz
Compression mode : Lossy
Stream size : 126 MiB (6%)
Title : ORT
Language : Russian
Encoded date : UTC 2014-09-10 06:57:15
Tagged date : UTC 2014-09-10 07:21:22
Audio #3
ID : 4
Format : AAC
Format/Info : Advanced Audio Codec
Format profile : LC
Codec ID : 40
Duration : 1h 34mn
Bit rate mode : Variable
Bit rate : 163 Kbps
Maximum bit rate : 307 Kbps
Channel(s) : 2 channels
Channel positions : Front: L R
Sampling rate : 48.0 KHz
Compression mode : Lossy
Stream size : 110 MiB (5%)
Title : Jurij Serbin
Language : Russian
Encoded date : UTC 2014-09-10 07:06:46
Tagged date : UTC 2014-09-10 07:21:22
Audio #4
ID : 5
Format : AAC
Format/Info : Advanced Audio Codec
Format profile : LC
Codec ID : 40
Duration : 1h 34mn
Bit rate mode : Variable
Bit rate : 169 Kbps
Maximum bit rate : 236 Kbps
Channel(s) : 2 channels
Channel positions : Front: L R
Sampling rate : 48.0 KHz
Compression mode : Lossy
Stream size : 113 MiB (6%)
Language : English
Encoded date : UTC 2014-09-10 07:16:32
Tagged date : UTC 2014-09-10 07:21:22
Text #1
ID : 6
Format : Timed Text
Muxing mode : sbtl
Codec ID : tx3g
Duration : 1h 32mn
Bit rate mode : Variable
Bit rate : 96 bps
Stream size : 64.7 KiB (0%)
Language : Russian
Encoded date : UTC 2014-09-10 07:21:22
Tagged date : UTC 2014-09-10 07:21:22
Text #2
ID : 7
Format : Timed Text
Muxing mode : sbtl
Codec ID : tx3g
Duration : 1h 34mn
Bit rate mode : Variable
Bit rate : 59 bps
Stream size : 40.8 KiB (0%)
Title : SDH
Language : English
Encoded date : UTC 2014-09-10 07:21:22
Tagged date : UTC 2014-09-10 07:21:22
Text #3
ID : 8
Format : Timed Text
Muxing mode : sbtl
Codec ID : tx3g
Duration : 1h 32mn
Bit rate mode : Variable
Bit rate : 57 bps
Stream size : 38.8 KiB (0%)
Language : English
Encoded date : UTC 2014-09-10 07:21:22
Tagged date : UTC 2014-09-10 07:21:22
Menu
ID : 9
Codec ID : text
Duration : 1h 34mn
Language : English
Encoded date : UTC 2014-09-10 07:22:20
Tagged date : UTC 2014-09-10 07:22:20
Bit rate mode : CBR



   Похожие торренты   Торрент   Размер 
В этой теме нет новых непрочитанных сообщений. Твин Пикс / Twin Peaks [S02] (1990-1991) BDRip-AVC | iPad

49 | 15

23.28 ГБ

В этой теме нет новых непрочитанных сообщений. Твин Пикс / Twin Peaks [S01] (1990) BDRip

94 | 114

7.38 ГБ

В этой теме нет новых непрочитанных сообщений. Твин Пикс / Twin Peaks [S01] (1990) BDRip 1080p | P, A

215 | 26

28.81 ГБ

В этой теме нет новых непрочитанных сообщений. Твин Пикс / Twin Peaks [S01] (1990) BDRip 720p

30 | 34

35.35 ГБ

В этой теме нет новых непрочитанных сообщений. Твин Пикс / Twin Peaks [S01] (1990) BDRip 720p от MediaClub | P, А

30 | 49

31.85 ГБ

В этой теме нет новых непрочитанных сообщений. Твин Пикс / Twin Peaks [S01-02] (1990) BDRip 720p от MediaClub | P, А

104 | 64

104.54 ГБ

В этой теме нет новых непрочитанных сообщений. Твин Пикс / Twin Peaks [1 сезон] (1990) BDRip от HQ-ViDEO | A, P

572 | 155

7.87 ГБ




Вы не можете начинать темы
Вы не можете отвечать на сообщения
Вы не можете редактировать свои сообщения
Вы не можете удалять свои сообщения
Вы не можете добавлять вложения

Перейти:  
Для Мосгорсуда, Роскомнадзора и рекламодателей: mosgorsud-torrent[собачка]yandex.ru
 Вход
ppkBB3cker v.2 © 2008-2014 @ PPK
[ Time : 0.063s | 16 Queries | GZIP : Off ]

Торрент трекер RUTOR.IN, Не можете зайти на rutor.org? Какой новый адрес рутор? Какое зеркало рутор? Не работает rutor.org и зеркала? Тогда наш торрент специально для вас. Rutor.in неофициальное зеркало rutor. В случае если у Вас заблокирован rutor или вдруг Вы не можете на него зайти, то Вы без труда сможете скачать бесплатно и без рекламы последние новинки кино, игр, сериалов и прочего у нас, на Rutor.in. Не нужно использовать прокси, чтобы зайти на рутор, достаточно воспользоваться нашим ресурсом. Все новые фильмы, игры, сериалы, книги и музыка за 2013 и 2014 годы через торрент бесплатно. Скачивайте фильмы в хорошем качестве, игры для пк, xbox, playstation без регистрации. У нас вы найдете новые Зарубежные сериалы и Русские сериалы 2013, 2014, 2015 годов. Оставайтесь с нами, качайте любимые фильмы, игры, сериалы, книги и музыку.