img image001 image001 image001 image001 image001 image001 image001 image001 image001 image001 image001 image001 image001 image001 image001

Planets Sun Sun Sun
Статистика раздачи
Автор: Nickolas3434 | Размер: 5.43 ГБ | Добавлен: 05 ноя 2014
Раздают: 285    Качают: 24
Скачать торрент
Скачать торрент
Описание торрента

СообщениеДобавлено: 05 ноя 2014 

Информация о фильме
Название: Череп и кости
Оригинальное название: Crossbones
Год выхода: 2014
Жанр: Драма, фантастика, ужасы, приключения, экранизация
Режиссер: Дэвид Слэйд, Киаран Доннелли, Дэниэл Эттиэс, Терри Макдонаф, Деран Сарафян, Стив Шилл
В ролях: Джон Малкович, Ричард Койл, Клер Фой, Ясмин Эл Массри, Дэвид Хофлин, Крис Перфетти, Трэйси Айфичор, Питер Стеббингс, Джулиан Сэндс, Эзра Баззингтон, Генри Херфорд, Эмильен Де Фалько, Кевин Райан...
О фильме:
1715 год. Багамский островов Нью-Провиденс. Здесь появилась первая функционирующая демократия в Америке. Дьявольский пират Эдвард Тич, он же Черная Борода, господствует здесь над нацией воров, преступников и злодеев моряков. Чтобы получить контроль над этим устрашающим обществом, опытного убийцу Тома Лоу посылают убить Черную Бороду.

1. Владения дьявола / The Devil's Dominion
2. Ковенант / The Covenant
3. Человек, убивший Чёрную Бороду / The Man Who Killed Blackbeard
4. Антуанетта / Antoinette
5. Возвращение / The Return
6. Дыра в голове / A Hole in the Head
7. Нищий / Beggarman
8. Череп и кости / Crossbones
9. Чёрная борода / Blackbeard

Страна: США
Студия: Universal TV
Продолжительность: 9 x ~ 00:50:00
Перевод: Профессиональный (многоголосый, закадровый) [NewStudio]
Файл
Формат: AVI
Качество: WEB-DLRip
Видео: XviD, 720x400, ~1800 kbps, 23.976 fps
Аудио: AC3, 48.0 KHz, 6 ch, 192 Kbps
Субтитры: Нет
Семпл

Complete name : E:KinoCherep.I.Kosti.XviD.WEB-DLRip.GeneralfilmCherep.I.Kosti.S01.2014.XviD.WEB-DLRip.NS.GeneralfilmCherep.I.Kosti.s01e01.2014.XviD.WEB-DLRip.NS.Generalfilm.avi
Format : AVI
Format/Info : Audio Video Interleave
File size : 723 MiB
Duration : 50mn 17s
Overall bit rate : 2 010 Kbps
Writing application : VirtualDubMod 1.5.10.3 | www.virtualdub-fr.org || (build 2550/release)
Writing library : VirtualDubMod build 2550/release
Video
ID : 0
Format : MPEG-4 Visual
Format profile : Advanced Simple@L5
Format settings, BVOP : 2
Format settings, QPel : No
Format settings, GMC : No warppoints
Format settings, Matrix : Default (H.263)
Codec ID : XVID
Codec ID/Hint : XviD
Duration : 50mn 17s
Bit rate : 1 809 Kbps
Width : 720 pixels
Height : 400 pixels
Display aspect ratio : 16:9
Frame rate : 23.976 fps
Color space : YUV
Chroma subsampling : 4:2:0
Bit depth : 8 bits
Scan type : Progressive
Compression mode : Lossy
Bits/(Pixel*Frame) : 0.262
Stream size : 651 MiB (90%)
Writing library : XviD 1.2.1 (UTC 2008-12-04)
Audio
ID : 1
Format : AC-3
Format/Info : Audio Coding 3
Mode extension : CM (complete main)
Format settings, Endianness : Big
Codec ID : 2000
Duration : 50mn 17s
Bit rate mode : Constant
Bit rate : 192 Kbps
Channel count : 6 channels
Channel positions : Front: L C R, Side: L R, LFE
Sampling rate : 48.0 KHz
Bit depth : 16 bits
Compression mode : Lossy
Stream size : 69.1 MiB (10%)
Alignment : Split accross interleaves
Interleave, duration : 42 ms (1.00 video frame)
Interleave, preload duration : 500 ms

Релиз от:



   Похожие торренты   Торрент   Размер 
В этой теме нет новых непрочитанных сообщений. Череп и кости / Crossbones [S01] (2014) WEB-DLRip от Generalfilm | КПК | NewStudio

59 | 20

1.7 ГБ

В этой теме нет новых непрочитанных сообщений. Череп и кости / Crossbones [S01] (2014) WEB-DLRip | NewStudio

265 | 68

4.98 ГБ

В этой теме нет новых непрочитанных сообщений. Череп и кости / Crossbones [01x01-08 из 09] (2014) WEB-DLRip | NewStudio

19 | 85

4.45 ГБ

В этой теме нет новых непрочитанных сообщений. Череп и кости / Crossbones [01x01-07 из 10] (2014) WEB-DLRip | NewStudio

16 | 47

3.91 ГБ

В этой теме нет новых непрочитанных сообщений. Череп и кости / Crossbones [01x01-06 из 10] (2014) WEB-DLRip | NewStudio

39 | 53

3.37 ГБ

В этой теме нет новых непрочитанных сообщений. Череп и кости / Crossbones [01x01-05 из 10] (2014) WEB-DLRip | NewStudio

48 | 77

2.83 ГБ

В этой теме нет новых непрочитанных сообщений. Череп и кости / Crossbones [01x01-03 из 10] (2014) WEB-DLRip | NewStudio

29 | 50

1.76 ГБ




Вы не можете начинать темы
Вы не можете отвечать на сообщения
Вы не можете редактировать свои сообщения
Вы не можете удалять свои сообщения
Вы не можете добавлять вложения

Перейти:  
Для Мосгорсуда, Роскомнадзора и рекламодателей: mosgorsud-torrent[собачка]yandex.ru
 Вход
ppkBB3cker v.2 © 2008-2014 @ PPK
[ Time : 0.034s | 15 Queries | GZIP : Off ]

Торрент трекер RUTOR.IN, Не можете зайти на rutor.org? Какой новый адрес рутор? Какое зеркало рутор? Не работает rutor.org и зеркала? Тогда наш торрент специально для вас. Rutor.in неофициальное зеркало rutor. В случае если у Вас заблокирован rutor или вдруг Вы не можете на него зайти, то Вы без труда сможете скачать бесплатно и без рекламы последние новинки кино, игр, сериалов и прочего у нас, на Rutor.in. Не нужно использовать прокси, чтобы зайти на рутор, достаточно воспользоваться нашим ресурсом. Все новые фильмы, игры, сериалы, книги и музыка за 2013 и 2014 годы через торрент бесплатно. Скачивайте фильмы в хорошем качестве, игры для пк, xbox, playstation без регистрации. У нас вы найдете новые Зарубежные сериалы и Русские сериалы 2013, 2014, 2015 годов. Оставайтесь с нами, качайте любимые фильмы, игры, сериалы, книги и музыку.