img image001 image001 image001 image001 image001 image001 image001 image001 image001 image001 image001 image001 image001 image001 image001

Planets Sun Sun Sun
Статистика раздачи
Автор: Nickolas3434 | Размер: 8.74 ГБ | Добавлен: 05 ноя 2014
Раздают: 59    Качают: 70
Скачать торрент
Скачать торрент
Описание торрента

СообщениеДобавлено: 05 ноя 2014 

Василий Сталин: жизнь в тени



Страна: Россия / Фаворит фильм, Film.UA, при участии Беларусьфильм
Жанр: драма
Год выпуска: 2013
Продолжительность: 00:52:00 / серия
Перевод: Не требуется
Cубтитры: нет
Оригинальная аудиодорожка: русский
Режиссер: Сергей Гинзбург, Сергей Щербин
В ролях: Гела Месхи, Василий Прокопьев, Анатолий Дзиваев, Сергей Газаров, Надежда Михалкова, Илья Ермолов, Алексей Вертков, Александр Никольский, Анатолий Гущин, Евгений Сангаджиев, Кристина Пакарина, Мария Жиганова, Артём Осипов, Светлана Колпакова, Юрий Маслак, Марьяна Спивак, Анна Кирина, Дмитрий Абазовик, Иван Суханов, Максим Сапрыкин, Мария Андреева
Описание: Более 40 лет назад в Казани умер Василий Сталин, для одних — герой, для других — ничтожество. Каким он был на самом деле? Сюжет нового сериала расскажет о трагической судьбе Василия Сталина, любимого сына советского диктатора. Василий сделал блестящую военную карьеру летчика. Он был всеобщим любимцем и баловнем судьбы, покорителем женских сердец и отважным пилотом... Генерал-лейтенант в 26 лет, бабник и гуляка, Василий — невероятно обаятельный человек. Он отличный друг, прекрасный руководитель и талантливый спортсмен. Весь мир у него в кармане, но в день, когда Великий Сталин умирает, жизнь его сына меняется раз и навсегда…


Качество: DVDRip / 2 x DVD9 R5 - лицензионные диски от "Lizard Cinema Trade"
Формат: AVI
Видео: 720x400 (16:9), 25.000 fps, XviD ~ 1800 kbps avg, 0.250 bit/pixel
Аудио: 48 kHz, Dolby AC3, 2 ch, 192 kbps, русский
Раздача от:
Основной актерский костяк в сериале «Сын отца народов» составили малоизвестные артисты. Исключением стала Надежда Михалкова, сыгравшая роль дочери Сталина Светланы Аллилуевой. Интересно, что во время съемок фильма актрисе пришлось специально носить обувь на низком каблуке, т. к. Светлана Аллилуева была невысокого роста. Роль Василия Сталина сыграл молодой российский актер Гела Месхи.
Цитата
— Мы решили, что известность актера не должна перевешивать значимость его роли, — прокомментировал такой выбор директор производства фильма Владимир Бухарев. — Это ведь не банальный сериал, не медицинская «бегалка» или бандитская стрелялка. Это достоверный исторический материал.


Интересно, что актер Анатолий Дзиваев, исполнивший роль Иосифа Сталина в сериале «Сын отца народов», уже неоднократно появлялся на телеэкранах в образе Вождя народов. На его счету роли Сталина в сериале «Жуков», а также в фильмах «Тухачевский. Заговор маршала», «Земля обетованная от Иосифа Сталина», «Поединок» и «Берия. Проигрыш». Съемки сериала «Сын отца народов» проходили на территории России и Белоруссии. Работа над фильмом началась в Московском Кремле и продолжилась на даче Сталина. Основная часть проекта снималась в Минске, где сохранилось немало где были воссозданы трагические военные события лета 1940 года. Среди декораций особый интерес представляли макеты истребителей И-16.

Общее
Полное имя : Syn.Otsa.Narodov.2013.O.DVDRip_by_keeper1.avi
Формат : AVI
Формат/Информация : Audio Video Interleave
Размер файла : 734 Мбайт
Продолжительность : 51 м.
Общий поток : 2001 Кбит/сек
Программа кодирования : VirtualDubMod 1.5.10.3 | www.virtualdub-fr.org || (build 2550/release)
Библиотека кодирования : VirtualDubMod build 2550/release
Видео
Идентификатор : 0
Формат : MPEG-4 Visual
Профиль формата : Advanced Simple@L5
Параметр BVOP формата : 1
Параметр QPel формата : Нет
Параметр GMC формата : Без точки перехода
Параметр матрицы формата : Выборочная
Идентификатор кодека : XVID
Идентификатор кодека/Подсказка : XviD
Продолжительность : 51 м.
Битрейт : 1800 Кбит/сек
Ширина : 720 пикселей
Высота : 400 пикселей
Соотношение сторон : 16:9
Частота кадров : 25,000 кадров/сек
Цветовое пространство : YUV
Субдискретизация насыщенности : 4:2:0
Битовая глубина : 8 бит
Тип развёртки : Прогрессивная
Метод сжатия : С потерями
Бит/(Пиксели*Кадры) : 0.250
Размер потока : 660 Мбайт (90%)
Библиотека кодирования : XviD 1.2.1 (UTC 2008-12-04)
Аудио
Идентификатор : 1
Формат : AC-3
Формат/Информация : Audio Coding 3
Расширение режима : CM (complete main)
Параметр Endianness формата : Big
Идентификатор кодека : 2000
Продолжительность : 51 м.
Вид битрейта : Постоянный
Битрейт : 192 Кбит/сек
Каналы : 2 канала
Расположение каналов : Front: L R
Частота : 48,0 КГц
Битовая глубина : 16 бит
Метод сжатия : С потерями
Размер потока : 70,4 Мбайт (10%)
Выравнивание : Разделение по промежуткам
Продолжительность промежутка : 40 мс. (1,00 видеокадр)
Время предзагрузки промежутка : 500 мс.





   Похожие торренты   Торрент   Размер 
В этой теме нет новых непрочитанных сообщений. Сын отца народов [01x01-12 из 12] (2013) DVDRip-AVC от New-Team | лицензия

41 | 11

8.75 ГБ

В этой теме нет новых непрочитанных сообщений. Сын отца народов [01x01-12 из 12] (2013) 2xDVD9 от New-Team | Лицензия

6 | 9

15.85 ГБ

В этой теме нет новых непрочитанных сообщений. Сын отца народов [01-12 из 12] (2013) SATRip

400 | 57

8.44 ГБ

В этой теме нет новых непрочитанных сообщений. Два отца и два сына [01-20 из 20] (2013) DVDRip от New-Team | лицензия

297 | 328

6.53 ГБ

В этой теме нет новых непрочитанных сообщений. Два отца и два сына [01-20 из 20] (2013) DVDRip-AVC от New-Team | лицензия

110 | 105

6.52 ГБ

В этой теме нет новых непрочитанных сообщений. Сын отца народов [01-12 из 12] (2013) HDTVRip от Files-x

83 | 20

7.03 ГБ

В этой теме нет новых непрочитанных сообщений. Сын отца народов [01-12 из 12] (2013) WEB-DLRip 1080p

22 | 18

24.14 ГБ




Вы не можете начинать темы
Вы не можете отвечать на сообщения
Вы не можете редактировать свои сообщения
Вы не можете удалять свои сообщения
Вы не можете добавлять вложения

Перейти:  
Для Мосгорсуда, Роскомнадзора и рекламодателей: mosgorsud-torrent[собачка]yandex.ru
 Вход
ppkBB3cker v.2 © 2008-2014 @ PPK
[ Time : 0.070s | 16 Queries | GZIP : On ]

Торрент трекер RUTOR.IN, Не можете зайти на rutor.org? Какой новый адрес рутор? Какое зеркало рутор? Не работает rutor.org и зеркала? Тогда наш торрент специально для вас. Rutor.in неофициальное зеркало rutor. В случае если у Вас заблокирован rutor или вдруг Вы не можете на него зайти, то Вы без труда сможете скачать бесплатно и без рекламы последние новинки кино, игр, сериалов и прочего у нас, на Rutor.in. Не нужно использовать прокси, чтобы зайти на рутор, достаточно воспользоваться нашим ресурсом. Все новые фильмы, игры, сериалы, книги и музыка за 2013 и 2014 годы через торрент бесплатно. Скачивайте фильмы в хорошем качестве, игры для пк, xbox, playstation без регистрации. У нас вы найдете новые Зарубежные сериалы и Русские сериалы 2013, 2014, 2015 годов. Оставайтесь с нами, качайте любимые фильмы, игры, сериалы, книги и музыку.
cron