img image001 image001 image001 image001 image001 image001 image001 image001 image001 image001 image001 image001 image001 image001 image001

Planets Sun Sun Sun
Статистика раздачи
Автор: Nickolas3434 | Размер: 5.58 ГБ | Добавлен: 12 ноя 2014
Раздают: 26    Качают: 9
Скачать торрент
Скачать торрент
Описание торрента

СообщениеДобавлено: 12 ноя 2014 

Информация о фильме
Название: Карнавал
Оригинальное название: Carnivale
Год выхода: 2003
Жанр: Мистика, фэнтези, триллер, драма, детектив
Режиссер: Родриго Гарсия, Джереми Подесва, Джек Бендер, Тим Хантер, Джон Паттерсон, Скотт Уинант
В ролях: Ник Стал, Клэнси Браун, Майкл Дж. Андерсон, Клеа ДюВалл, Тим ДиКей, Эми Мэдиган, Карла Галло, Роберт Неппер, Джон Кэрролл Линч, Патрик Бошо, Синтия Эттинджер, Тоби Хасс, Эдриенн Барбо, Дебра Кристофферсон, Брайан Турк, Дайан Салинджер, Ральф Уэйт, Джон Сэвэдж, Скотт МакДональд
О фильме:
Америка, 1934 год, Средний Запад. 18-летний беглец Бен Хокинс находит приют в странствующем цирке «Карнавал», в котором есть: цыганка Софи, читающая карты Таро, ее парализованная мать, владеющая телекинезом, слепой профессор Лодз, читающий чужие мысли, бородатая женщина Лайла, сиамские близнецы, укротительница змей Руте, а также карлик-надзиратель Самсон. Владельцем цирка является загадочный Хозяин, который имеет определенные планы относительно молодого Хокинса, поскольку тот скрывает тайный дар. Он может исцелять больных и оживлять мертвых, правда, ценой другой жизни. А еще у Бена бывают странные сны. И он не единственный, кто их видит. У проповедника из Калифорнии Джастина Кроу, который когда-то встречался с Беном, бывают такие же самые видения. Джастин считает, что выполняет Божью волю. Однако со временем действия священника приводят к странным и трагическим последствиям. В эту «последнюю большую эпоху магии» конфликт между Беном и Джастином оказывается борьбой Добра и Зла, и неизвестно, кто на чьей стороне.

Страна: США
Студия: 3 Arts Entertainment, Home Box Office (HBO)
Продолжительность: 24 х ~ 00:55:00
Перевод: Дублированный [ТК Домашний]
Файл
Формат: MP4
Качество: WEB-DLRip | КПК
Видео: MPEG-4 AVC (x264), 640x360, ~500 kbps, 23.976 fps
Аудио: AAC LC, 48.0 KHz, 2 ch, 128 Kbps
Субтитры: Нет
Семпл

Complete name : E:KinoKarnaval.AVC.WEB-DLRip.KPK.Dom.GeneralfilmKarnaval.S01.2003.AVC.WEB-DLRip.KPK.GeneralfilmKarnaval.s01e02.2003.AVC.WEB-DLRip.KPK.Generalfilm.mp4
Format : MPEG-4
Format profile : Base Media
Codec ID : isom
File size : 255 MiB
Duration : 56mn 26s
Overall bit rate mode : Variable
Overall bit rate : 631 Kbps
Encoded date : UTC 2014-10-22 18:01:06
Tagged date : UTC 2014-10-22 18:01:06
Video
ID : 1
Format : AVC
Format/Info : Advanced Video Codec
Format profile : Baseline@L4.1
Format settings, CABAC : No
Format settings, ReFrames : 6 frames
Codec ID : avc1
Codec ID/Info : Advanced Video Coding
Duration : 56mn 26s
Bit rate : 500 Kbps
Maximum bit rate : 6 400 Kbps
Width : 640 pixels
Height : 360 pixels
Display aspect ratio : 16:9
Frame rate mode : Constant
Frame rate : 23.976 fps
Color space : YUV
Chroma subsampling : 4:2:0
Bit depth : 8 bits
Scan type : Progressive
Bits/(Pixel*Frame) : 0.091
Stream size : 202 MiB (79%)
Writing library : x264 core 119 r2106 07efeb4
Encoding settings : cabac=0 / ref=6 / deblock=1:-1:-1 / analyse=0x1:0x111 / me=umh / subme=7 / psy=1 / psy_rd=1.00:0.00 / mixed_ref=0 / me_range=16 / chroma_me=1 / trellis=1 / 8x8dct=0 / cqm=0 / deadzone=21,11 / fast_pskip=0 / chroma_qp_offset=-2 / threads=3 / sliced_threads=0 / nr=0 / decimate=1 / interlaced=0 / bluray_compat=0 / constrained_intra=0 / bframes=0 / weightp=0 / keyint=250 / keyint_min=23 / scenecut=40 / intra_refresh=0 / rc_lookahead=60 / rc=2pass / mbtree=1 / bitrate=500 / ratetol=1.0 / qcomp=0.60 / qpmin=0 / qpmax=69 / qpstep=4 / cplxblur=20.0 / qblur=0.5 / ip_ratio=1.40 / aq=1:1.00
Encoded date : UTC 2014-10-22 18:01:06
Tagged date : UTC 2014-10-22 18:02:09
Audio
ID : 2
Format : AAC
Format/Info : Advanced Audio Codec
Format profile : LC
Codec ID : 40
Duration : 56mn 26s
Bit rate mode : Variable
Bit rate : 128 Kbps
Maximum bit rate : 155 Kbps
Channel count : 2 channels
Channel positions : Front: L R
Sampling rate : 48.0 KHz
Compression mode : Lossy
Stream size : 51.7 MiB (20%)
Encoded date : UTC 2014-10-22 18:02:04
Tagged date : UTC 2014-10-22 18:02:09

Релиз от:



   Похожие торренты   Торрент   Размер 
В этой теме нет новых непрочитанных сообщений. Карнавал / Carnivale [S01-02] (2003-2005) WEB-DLRip | НТВ+

6 | 2

11.79 ГБ

В этой теме нет новых непрочитанных сообщений. Карнавал / Carnivale [S01-02] (2003-2005) WEB-DL 720p от MediaClub

38 | 35

42.86 ГБ

В этой теме нет новых непрочитанных сообщений. Карнавал / Carnivale [S01-02] (2003) HDTVRip, DVDRip

29 | 11

8.72 ГБ

В этой теме нет новых непрочитанных сообщений. Дракула / Dracula [S01] (2013-2014) WEB-DLRip от Generalfilm | КПК | Домашний

25 | 14

1.89 ГБ

В этой теме нет новых непрочитанных сообщений. Даша Васильева. Любительница частного сыска [S01-04] (2003-2005) WEB-DLRip от Generalfilm

94 | 224

30.38 ГБ

В этой теме нет новых непрочитанных сообщений. Сборник - Звёздный карнавал (2005) MP3

17 | 3

595.33 МБ

В этой теме нет новых непрочитанных сообщений. Домашний ПК (2003-2010) PDF

0 | 3

2.93 ГБ




Вы не можете начинать темы
Вы не можете отвечать на сообщения
Вы не можете редактировать свои сообщения
Вы не можете удалять свои сообщения
Вы не можете добавлять вложения

Перейти:  
Для Мосгорсуда, Роскомнадзора и рекламодателей: mosgorsud-torrent[собачка]yandex.ru
 Вход
ppkBB3cker v.2 © 2008-2014 @ PPK
[ Time : 0.031s | 15 Queries | GZIP : Off ]

Торрент трекер RUTOR.IN, Не можете зайти на rutor.org? Какой новый адрес рутор? Какое зеркало рутор? Не работает rutor.org и зеркала? Тогда наш торрент специально для вас. Rutor.in неофициальное зеркало rutor. В случае если у Вас заблокирован rutor или вдруг Вы не можете на него зайти, то Вы без труда сможете скачать бесплатно и без рекламы последние новинки кино, игр, сериалов и прочего у нас, на Rutor.in. Не нужно использовать прокси, чтобы зайти на рутор, достаточно воспользоваться нашим ресурсом. Все новые фильмы, игры, сериалы, книги и музыка за 2013 и 2014 годы через торрент бесплатно. Скачивайте фильмы в хорошем качестве, игры для пк, xbox, playstation без регистрации. У нас вы найдете новые Зарубежные сериалы и Русские сериалы 2013, 2014, 2015 годов. Оставайтесь с нами, качайте любимые фильмы, игры, сериалы, книги и музыку.