img image001 image001 image001 image001 image001 image001 image001 image001 image001 image001 image001 image001 image001 image001 image001

Planets Sun Sun Sun
Статистика раздачи
Автор: Nickolas3434 | Размер: 6.45 ГБ | Добавлен: 14 ноя 2014
Раздают: 879    Качают: 827
Скачать торрент
Скачать торрент
Описание торрента

СообщениеДобавлено: 14 ноя 2014 

Информация о фильме
Название: Светофор
Год выхода: 2014
Жанр: Ситком, комедия, ремейк
Режиссёр: Роман Фокин
В ролях: Ольга Медынич, Джемал Тетруашвили, Дмитрий Миллер, Александр Макогон, Ирина Низина, Сергей Лобынцев, Александр Никольский, Евгения Каверау, Антонина Комиссарова
О фильме: Когда тебе немного за тридцать, ты вдруг замечаешь, что твоя жизнь похожа на сигналы светофора. Если ты холостяк, для тебя всегда горит зеленый свет, всё вокруг в движении, и ты свободно едешь. Куда хочешь. И с кем хочешь. Если ты встречаешься с девушкой, тебе уже мигает жёлтый свет. С одной стороны, ты ещё в движении, а с другой, уже готовишься остановиться. А если ты женат - ты встал на красном. Всё изменилось: ты уже не можешь думать только о себе. Их трое. Им немного за тридцать. Они лучшие друзья, которые всегда придут друг другу на помощь. Вернее, почти всегда. Ведь у каждого из них в жизни есть ещё нечто, чему нужно уделять очень много внимания. Это - любовь. Со времён, когда у каждого героя был свой цвет - красный, жёлтый и зелёный, - многое поменялось...

Выпущено: Россия, Yellow, Black & White
Продолжительность: 20 x ~ 00:24:30
Перевод: Не требуется
Файл
Качество: WEB-DLRip [Исходник: WEB-DL (1080p)]
Видео: XviD, ~ 1737 Кбит/с, 704x400, 25 кадр/с
Аудио: Русский, MP3, 48000 Гц, 128 Кбит/с, 2 канала (Стерео)

General
Complete name : Svetofor.s07e09.WEB-DLRip.avi
Format : AVI
Format/Info : Audio Video Interleave
File size : 330 MiB
Duration : 24mn 36s
Overall bit rate : 1 875 Kbps
Writing application : VirtualDubMod 1.5.10.3 | www.virtualdub-fr.org || (build 2550/release)
Writing library : VirtualDubMod build 2550/release
Video
ID : 0
Format : MPEG-4 Visual
Format profile : Advanced Simple@L5
Format settings, BVOP : 1
Format settings, QPel : No
Format settings, GMC : No warppoints
Format settings, Matrix : Custom
Codec ID : XVID
Codec ID/Hint : XviD
Duration : 24mn 36s
Bit rate : 1 737 Kbps
Width : 704 pixels
Height : 400 pixels
Display aspect ratio : 16:9
Frame rate : 25.000 fps
Color space : YUV
Chroma subsampling : 4:2:0
Bit depth : 8 bits
Scan type : Progressive
Compression mode : Lossy
Bits/(Pixel*Frame) : 0.247
Stream size : 306 MiB (93%)
Writing library : XviD 73
Audio
ID : 1
Format : MPEG Audio
Format version : Version 1
Format profile : Layer 3
Codec ID : 55
Codec ID/Hint : MP3
Duration : 24mn 36s
Bit rate mode : Constant
Bit rate : 128 Kbps
Channel(s) : 2 channels
Sampling rate : 48.0 KHz
Compression mode : Lossy
Stream size : 22.5 MiB (7%)
Alignment : Aligned on interleaves
Interleave, duration : 40 ms (1.00 video frame)
Interleave, preload duration : 504 ms
Writing library : LAME3.99r
Encoding settings : -m s -V 4 -q 0 -lowpass 17 -b 128


Автор рипа - ivandubskoj



   Похожие торренты   Торрент   Размер 
В этой теме нет новых непрочитанных сообщений. Светофор [07x01-15 из 20] (2014) WEB-DLRip от ivandubskoj

21 | 45

4.84 ГБ

В этой теме нет новых непрочитанных сообщений. Светофор [07x01-17 из 20] (2014) WEB-DLRip от ivandubskoj

132 | 185

5.48 ГБ

В этой теме нет новых непрочитанных сообщений. Светофор [07x01-14 из 20] (2014) WEB-DLRip от ivandubskoj

152 | 292

4.51 ГБ

В этой теме нет новых непрочитанных сообщений. Светофор [07x01-16 из 20] (2014) WEB-DLRip от ivandubskoj

8 | 47

5.16 ГБ

В этой теме нет новых непрочитанных сообщений. Светофор [07x01-18 из 20] (2014) WEB-DLRip от ivandubskoj

1425 | 146

5.8 ГБ

В этой теме нет новых непрочитанных сообщений. Светофор [09x01 из 20] (2016) WEB-DLRip от ivandubskoj

10 | 0

349.66 МБ

В этой теме нет новых непрочитанных сообщений. Светофор [08x01 из 20] (2016) WEB-DLRip от ivandubskoj

116 | 249

1.37 ГБ




Вы не можете начинать темы
Вы не можете отвечать на сообщения
Вы не можете редактировать свои сообщения
Вы не можете удалять свои сообщения
Вы не можете добавлять вложения

Перейти:  
Для Мосгорсуда, Роскомнадзора и рекламодателей: mosgorsud-torrent[собачка]yandex.ru
 Вход
ppkBB3cker v.2 © 2008-2014 @ PPK
[ Time : 0.066s | 16 Queries | GZIP : Off ]

cron