img image001 image001 image001 image001 image001 image001 image001 image001 image001 image001 image001 image001 image001 image001 image001

Planets Sun Sun Sun
Статистика раздачи
Автор: Nickolas3434 | Размер: 6.45 ГБ | Добавлен: 19 ноя 2014
Раздают: 326    Качают: 59
Скачать торрент
Скачать торрент
Описание торрента

СообщениеДобавлено: 19 ноя 2014 

«Ему суждено стать участником грязных политических интриг, кровавого военного переворота, встретить свою любовь и найти верного друга. Но все потерять...»



Страна: Россия / НТВ-Кино
Жанр: детектив
Год выпуска: 2006
Продолжительность: 00:50:00 / серия
Перевод: Не требуется
Cубтитры: нет
Оригинальная аудиодорожка: русский
Режиссер: Александр Черняев
В ролях: Никита Зверев, Марина Черняева, Павел Новиков, Андрей Фролов, Татьяна Абрамова, Сергей Векслер, Александр Макогон, Александр Пашутин, Рамиль Сабитов, Сергей Селин...
Описание: 1985 год. Молодой военный переводчик-арабист Андрей Обнорский оказывается на практике в Народно-Демократической Республике Йемен, где работает группа советских военных советников, помогающих формировать и обучать йеменскую армию. Прямиком со студенческой скамьи юноша попадает в бурный водоворот событий — настоящая африканская жара, противостояние южан и северян некогда единого йеменского государства, политические распри в самой НДРЙ, вылившиеся в военный переворот, наконец, игры советских спецслужб. Андрей принимает участие в боевых действиях, становится свидетелем военного переворота и резни в Адене, невольно оказывается в центре истории с пропажей партии оружия, переправляемого советским руководством палестинцам транзитом через Йемен. Но здесь же, в этой раскаленной от солнца стране, Андрей встречает свою любовь и находит верного друга. Спустя несколько лет военный переводчик лейтенант Обнорский направлен в очередную командировку — в Ливию. Он хочет забыть прежние кошмары и ожидает встречи с другом по йеменской практике. Но вместо этого Андрею предстоит вести опасное расследование обстоятельств его сомнительного самоубийства и воскресить призраков прошлого. Он снова узнает многое из того, о чем, возможно, предпочел бы никогда не слышать.


Качество: DVDRip / 2 x DVD9 R5 - лицензионные диски от компании "DVD Land"
Формат: AVI
Видео: 704x384 (1.85:1), 25.000 fps, XviD ~ 1800 kbps avg, 0.266 bit/pixel
Аудио: 48 kHz, Dolby AC3, 6 ch, 448 kbps, русский
Раздача от:
General
Format : AVI
Format/Info : Audio Video Interleave
File size : 871 MiB
Duration : 53mn 56s
Overall bit rate : 2 258 Kbps
Writing application : VirtualDubMod 1.5.10.3 | www.virtualdub-fr.org || (build 2550/release)
Writing library : VirtualDubMod build 2550/release
Video
ID : 0
Format : MPEG-4 Visual
Format profile : Advanced Simple@L5
Format settings, BVOP : 1
Format settings, QPel : No
Format settings, GMC : No warppoints
Format settings, Matrix : Custom
Codec ID : XVID
Codec ID/Hint : XviD
Duration : 53mn 56s
Bit rate : 1 800 Kbps
Width : 704 pixels
Height : 384 pixels
Display aspect ratio : 1.85:1
Frame rate : 25.000 fps
Color space : YUV
Chroma subsampling : 4:2:0
Bit depth : 8 bits
Scan type : Progressive
Compression mode : Lossy
Bits/(Pixel*Frame) : 0.266
Stream size : 694 MiB (80%)
Writing library : XviD 1.2.1 (UTC 2008-12-04)
Audio
ID : 1
Format : AC-3
Format/Info : Audio Coding 3
Mode extension : CM (complete main)
Format settings, Endianness : Big
Codec ID : 2000
Duration : 53mn 56s
Bit rate mode : Constant
Bit rate : 448 Kbps
Channel(s) : 6 channels
Channel positions : Front: L C R, Side: L R, LFE
Sampling rate : 48.0 KHz
Bit depth : 16 bits
Compression mode : Lossy
Stream size : 173 MiB (20%)
Alignment : Split accross interleaves
Interleave, duration : 40 ms (1.00 video frame)
Interleave, preload duration : 500 ms





   Похожие торренты   Торрент   Размер 
В этой теме нет новых непрочитанных сообщений. Русский перевод [01-08 из 08] (2006) DVDRip-AVC от New-Team

99 | 16

6.45 ГБ

В этой теме нет новых непрочитанных сообщений. Русский перевод [01-08 из 8] (2006) DVDRip

37 | 8

5.79 ГБ

В этой теме нет новых непрочитанных сообщений. Русский перевод [01-08 из 8] (2006) DVDRip

35 | 4

3.13 ГБ

В этой теме нет новых непрочитанных сообщений. Махмуд Ахмадинежад / Ahmadinejad. Речь иранского президента на 65-й Генассамблее ООН в Нью-Йорке 23 сентября 2010 (2010) TVRip (Русский перевод)

0 | 2

386.67 МБ

В этой теме нет новых непрочитанных сообщений. Русский вопрос (1947) DVDRip от New-Team

22 | 3

1.46 ГБ

В этой теме нет новых непрочитанных сообщений. Русский вопрос (1947) DVDRip от New-Team

32 | 2

743.75 МБ

В этой теме нет новых непрочитанных сообщений. Русский вопрос (1947) DVDRip-AVC от New-Team

23 | 5

1.46 ГБ




Вы не можете начинать темы
Вы не можете отвечать на сообщения
Вы не можете редактировать свои сообщения
Вы не можете удалять свои сообщения
Вы не можете добавлять вложения

Перейти:  
Для Мосгорсуда, Роскомнадзора и рекламодателей: mosgorsud-torrent[собачка]yandex.ru
 Вход
ppkBB3cker v.2 © 2008-2014 @ PPK
[ Time : 0.415s | 15 Queries | GZIP : Off ]

Торрент трекер RUTOR.IN, Не можете зайти на rutor.org? Какой новый адрес рутор? Какое зеркало рутор? Не работает rutor.org и зеркала? Тогда наш торрент специально для вас. Rutor.in неофициальное зеркало rutor. В случае если у Вас заблокирован rutor или вдруг Вы не можете на него зайти, то Вы без труда сможете скачать бесплатно и без рекламы последние новинки кино, игр, сериалов и прочего у нас, на Rutor.in. Не нужно использовать прокси, чтобы зайти на рутор, достаточно воспользоваться нашим ресурсом. Все новые фильмы, игры, сериалы, книги и музыка за 2013 и 2014 годы через торрент бесплатно. Скачивайте фильмы в хорошем качестве, игры для пк, xbox, playstation без регистрации. У нас вы найдете новые Зарубежные сериалы и Русские сериалы 2013, 2014, 2015 годов. Оставайтесь с нами, качайте любимые фильмы, игры, сериалы, книги и музыку.