img image001 image001 image001 image001 image001 image001 image001 image001 image001 image001 image001 image001 image001 image001 image001

Planets Sun Sun Sun
Статистика раздачи
Автор: Nickolas3434 | Размер: 7.71 ГБ | Добавлен: 19 ноя 2014
Раздают: 3032    Качают: 477
Скачать торрент
Скачать торрент
Описание торрента

СообщениеДобавлено: 19 ноя 2014 

Информация о фильме
Название: Сотня
Оригинальное название: The Hundred
Год выхода: 2014
Жанр: Фантастика, экранизация
Режиссер: Дин Уайт, Джон Беринг, Милан Чейлов
В ролях: Элиза Тейлор, Мари Авгеропулос, Сачин Сахель, Линдси Морган, Женевьев Бюкнер, Ричард Хэрмон, Джарод Джозеф, Челси Рейст, Крис Браунинг, Джош Ссеттуба
О фильме:
Экранизация одноименного романа Касс Морган. После ядерной войны прошло 97 лет. Остатки человечества, укрывшиеся на космической станции «Ковчег», страдают от нехватки ресурсов, необходимых для дальнейшего выживания. Правительство исчерпало все меры, включая жесткое ограничение рождаемости, но ситуация продолжает ухудшаться. Остается единственный выход — попробовать вернуться на Землю. Чтобы узнать, пригодна ли для жизни покинутая давным-давно планета, правительство отправляет туда сотню молодых правонарушителей, в числе которых оказываются дети высокопоставленных чиновников и других известных на «Ковчеге» людей. Теперь судьба всего человечества зависит от этой группы «изгнанников»...

01. Пилот
02. Выжить на Земле
03. Умереть на Земле
04. Закон Мерфи
05. Последний луч сумерек
06. Ради сестры
07. Под давлением
08. Однодневное путешествие
09. День единства
10. Я стал Смертью
11. Тишина
12. Мы - земляне: часть 1
13. Мы - земляне: часть 2

Страна: США
Студия: Bonanza Productions, Alloy Entertainment, Warner Bros. Television
Продолжительность: 13 х ~ 00:42:00
Перевод: Профессиональный (многоголосый, закадровый) [LostFilm]
Файл
Формат: AVI
Качество: WEB-DLRip
Видео: XviD, 720x400, ~1800 kbps, 23.976 fps
Аудио: AC3, 48.0 KHz, 6 ch, 192 Kbps
Субтитры: Нет
Семпл

Complete name : E:KinoSotnya.XviD.WEB-DLRip.LF.GeneralfilmSotnya.S01.2014.XviD.WEB-DLRip.LF.GeneralfilmSotnya.s01e03.2014.XviD.WEB-DLRip.LF.Generalfilm.avi
Format : AVI
Format/Info : Audio Video Interleave
File size : 609 MiB
Duration : 42mn 24s
Overall bit rate : 2 007 Kbps
Writing application : VirtualDubMod 1.5.10.3 | www.virtualdub-fr.org || (build 2550/release)
Writing library : VirtualDubMod build 2550/release
Video
ID : 0
Format : MPEG-4 Visual
Format profile : Advanced Simple@L5
Format settings, BVOP : 2
Format settings, QPel : No
Format settings, GMC : No warppoints
Format settings, Matrix : Default (H.263)
Codec ID : XVID
Codec ID/Hint : XviD
Duration : 42mn 24s
Bit rate : 1 806 Kbps
Width : 720 pixels
Height : 400 pixels
Display aspect ratio : 16:9
Frame rate : 23.976 fps
Color space : YUV
Chroma subsampling : 4:2:0
Bit depth : 8 bits
Scan type : Progressive
Compression mode : Lossy
Bits/(Pixel*Frame) : 0.262
Stream size : 548 MiB (90%)
Writing library : XviD 1.2.1 (UTC 2008-12-04)
Audio
ID : 1
Format : AC-3
Format/Info : Audio Coding 3
Mode extension : CM (complete main)
Format settings, Endianness : Big
Codec ID : 2000
Duration : 42mn 24s
Bit rate mode : Constant
Bit rate : 192 Kbps
Channel count : 6 channels
Channel positions : Front: L C R, Side: L R, LFE
Sampling rate : 48.0 KHz
Bit depth : 16 bits
Compression mode : Lossy
Stream size : 58.2 MiB (10%)
Alignment : Split accross interleaves
Interleave, duration : 42 ms (1.00 video frame)
Interleave, preload duration : 500 ms

Релиз от:



   Похожие торренты   Торрент   Размер 
В этой теме нет новых непрочитанных сообщений. Сотня / 100 / The 100 / The Hundred [S01] (2014) WEB-DLRip от Generalfilm | КПК | LostFilm

112 | 29

2.41 ГБ

В этой теме нет новых непрочитанных сообщений. Сотня / 100 / The 100 / The Hundred [S01-02] (2014-2015) WEB-DLRip от Generalfilm | КПК | LostFilm

394 | 251

5.4 ГБ

В этой теме нет новых непрочитанных сообщений. Сотня / 100 / The 100 / The Hundred [S01-02] (2014-2015) WEB-DLRip от Generalfilm | LostFilm

349 | 189

17.33 ГБ

В этой теме нет новых непрочитанных сообщений. Сотня / 100 / The 100 / The Hundred [01-02х01-21 из 29] (2014-2015) WEB-DLRip от Generalfilm | КПК | LostFilm

34 | 8

3.91 ГБ

В этой теме нет новых непрочитанных сообщений. Сотня / 100 / The 100 / The Hundred [S01-02х01-21 из 29] (2014-2015) WEB-DLRip от Generalfilm | LostFilm

43 | 47

12.46 ГБ

В этой теме нет новых непрочитанных сообщений. Сотня / 100 / The 100 / The Hundred [S01] (2014) WEB-DLRip | LostFilm

1943 | 1063

5.81 ГБ

В этой теме нет новых непрочитанных сообщений. Сотня / 100 / The 100 / The Hundred [01x01-05 из 13] (2014) WEB-DLRip | LostFilm

135 | 263

2.45 ГБ




Вы не можете начинать темы
Вы не можете отвечать на сообщения
Вы не можете редактировать свои сообщения
Вы не можете удалять свои сообщения
Вы не можете добавлять вложения

Перейти:  
Для Мосгорсуда, Роскомнадзора и рекламодателей: mosgorsud-torrent[собачка]yandex.ru
 Вход
ppkBB3cker v.2 © 2008-2014 @ PPK
[ Time : 0.038s | 16 Queries | GZIP : Off ]

Торрент трекер RUTOR.IN, Не можете зайти на rutor.org? Какой новый адрес рутор? Какое зеркало рутор? Не работает rutor.org и зеркала? Тогда наш торрент специально для вас. Rutor.in неофициальное зеркало rutor. В случае если у Вас заблокирован rutor или вдруг Вы не можете на него зайти, то Вы без труда сможете скачать бесплатно и без рекламы последние новинки кино, игр, сериалов и прочего у нас, на Rutor.in. Не нужно использовать прокси, чтобы зайти на рутор, достаточно воспользоваться нашим ресурсом. Все новые фильмы, игры, сериалы, книги и музыка за 2013 и 2014 годы через торрент бесплатно. Скачивайте фильмы в хорошем качестве, игры для пк, xbox, playstation без регистрации. У нас вы найдете новые Зарубежные сериалы и Русские сериалы 2013, 2014, 2015 годов. Оставайтесь с нами, качайте любимые фильмы, игры, сериалы, книги и музыку.